Полад Бюльбюль оглы. Больше, чем посол (Алексей Горовацкий, Анастасия Максимова) [2015, Документальный, биография, DVB]


Статистика раздачи [Обновить пиров]
Размер:  820 MB   |    Зарегистрирован:  8 месяцев 17 дней   |    Скачан:  0 раз

Полного источника не было: Никогда

 
   
 
 
 

[Цитировать]

Полад Бюльбюль оглы. Больше, чем посол
Год выпуска: 2015
Страна: Россия
Телеканал: Культура
Жанр: Документальный, биография
Продолжительность: 00:38:55
Режиссеры: Алексей Горовацкий, Анастасия Максимова
Описание: Его песни "Долалай", "Позвони", "Как жили мы, борясь" в 70-х годах прошлого века распевала вся страна, его пластинки выпускались миллионными тиражами. Фильм "Не бойся, я с тобой!" с Поладом Бюльбюль оглы в главной роли снискал невероятную любовь зрителей, фразы из него стали крылатыми.
Поладу Бюльбюль оглы удалось совместить в своей жизни творчество и служение своей стране: в течение многих лет певец остается Чрезвычайным и Полномочным Послом Республики Азербайджан в России. О времени, о творчестве, о необычных поворотах своей судьбы он рассказывает в фильме. Участвуют: Фархад Шамси оглы Бадалбейли, Абульфаз Мурсал оглы Караев, мама Полада Бюльбюль оглы - Аделя-Ханум.
качество: DVB
формат: TS
Видео: AVC (H264) 720x576 25.00fps 2 604 Kbps
Аудио: MPEG Audio Layer 2 48000Hz stereo 192 Kbps

MediaInfo

General
ID : 1 (0x1)
Complete name : H:\Торрент\Мои раздачи\ТВ\Культура\Полад Бюльбюль оглы. Больше, чем посол\Полад Бюльбюль оглы. Больше, чем посол.ts
Format : MPEG-TS
File size : 820 MiB
Duration : 38mn 55s
Overall bit rate mode : Variable
Overall bit rate : 2 944 Kbps
Video
ID : 602 (0x25A)
Menu ID : 6 (0x6)
Format : AVC
Format/Info : Advanced Video Codec
Format profile : Main@L3.0
Format settings, CABAC : Yes
Format settings, ReFrames : 4 frames
Codec ID : 27
Duration : 38mn 55s
Bit rate : 2 604 Kbps
Width : 720 pixels
Height : 576 pixels
Display aspect ratio : 4:3
Frame rate : 25.000 fps
Standard : Component
Color space : YUV
Chroma subsampling : 4:2:0
Bit depth : 8 bits
Scan type : Interlaced
Bits/(Pixel*Frame) : 0.251
Stream size : 725 MiB (88%)
Color primaries : BT.601 PAL
Transfer characteristics : BT.470 System B, BT.470 System G
Matrix coefficients : BT.601
Audio
ID : 603 (0x25B)
Menu ID : 6 (0x6)
Format : MPEG Audio
Format version : Version 1
Format profile : Layer 2
Codec ID : 4
Duration : 38mn 55s
Bit rate mode : Constant
Bit rate : 192 Kbps
Channel count : 2 channels
Sampling rate : 48.0 KHz
Compression mode : Lossy
Delay relative to video : 46ms
Stream size : 53.4 MiB (7%)
Language : Russian

Скриншоты

[teatrix.ru].t20292.torrent 
Торрент: Зарегистрирован [ 2016-03-19 20:40 ] · DF2357D46F624FCF51071C2BF281FC72F5237039

Скачать .torrent

Скачать

17 KB

Статус: проверено
Скачан: 0 раз
Размер: 820 MB
terms.php



Быстрый ответ

Имя:

      
Для отправки сообщений необходимо включить JavaScript
Показать сообщения:    

Текущее время: 06-Дек 19:04

Часовой пояс: UTC + 3


Вы можете начинать темы
Вы можете отвечать на сообщения
Вы не можете редактировать свои сообщения
Вы не можете удалять свои сообщения
Вы не можете голосовать в опросах
Вы не можете прикреплять файлы к сообщениям
Вы можете скачивать файлы