Petra Kolber - Liquid Grooves [2012, фитнес, фьюжен, DVDRip, ENG] (Видеоурок)


Статистика раздачи [Обновить пиров]
Размер:  404 MB   |    Зарегистрирован:  8 месяцев 20 дней   |    Скачан:  0 раз

Полного источника не было: Никогда

 
   
 
 
 

[Цитировать]

Petra Kolber - Liquid Grooves
Страна: USA
Тематика: фитнес, фьюжен
Тип раздаваемого материала: Видеоурок
Год выпуска: 2012
Продолжительность: 00:54:30
Язык: Английский
Перевод: Отсутствует
Описание: Думаете, тренировки должны быть выматывающими? Есть еще один вариант. Хотите открыть свое сердце, сосредоточить свое внимание и активизировать тело? Тогда обратите внимание на Liquid Grooves. Вдохновленный танцами, йогой и тай-чи, этот плавный класс сделает вас сильнее, светлее, и готовыми покорить мир грацией и красотой. Вы заботитесь о мнении других людей, позаботьтесь в этот раз о себе и своих внутренних потребностях. Вы это заслужили. Я приглашаю вас встать и двигаться с Liquid Grooves. Не требуется никакого оборудования, тренировка проходит босиком.
Трейлер на ютубе
http://www.youtube.com/watch?v=TB1CAm4X4_w
Качество: DVDRip
Формат: AVI
Видео кодек: XviD
Аудио кодек: AC3
Video: Xvid 640x352 29.97fps 799kbps 16:9
Audio: Dolby AC3 48000Hz stereo 224kbps
MediaInfo

скрытый текст

General
Format : AVI
Format/Info : Audio Video Interleave
File size : 404 MiB
Duration : 54mn 30s
Overall bit rate : 1 035 Kbps
Video
ID : 0
Format : MPEG-4 Visual
Format profile : Advanced Simple@L5
Format settings, BVOP : 2
Format settings, QPel : No
Format settings, GMC : No warppoints
Format settings, Matrix : Default (H.263)
Codec ID : XVID
Codec ID/Hint : XviD
Duration : 54mn 30s
Bit rate : 800 Kbps
Width : 640 pixels
Height : 352 pixels
Display aspect ratio : 16:9
Frame rate : 29.970 fps
Color space : YUV
Chroma subsampling : 4:2:0
Bit depth : 8 bits
Scan type : Progressive
Compression mode : Lossy
Bits/(Pixel*Frame) : 0.118
Stream size : 312 MiB (77%)
Writing library : XviD 64
Audio
ID : 1
Format : AC-3
Format/Info : Audio Coding 3
Mode extension : CM (complete main)
Codec ID : 2000
Duration : 54mn 29s
Source duration : 54mn 29s
Bit rate mode : Constant
Bit rate : 224 Kbps
Channel(s) : 2 channels
Channel positions : Front: L R
Sampling rate : 48.0 KHz
Bit depth : 16 bits
Compression mode : Lossy
Stream size : 87.3 MiB (22%)
Alignment : Aligned on interleaves
Interleave, duration : 33 ms (1.00 video frame)

Скриншоты

[teatrix.ru].t20293.torrent 
Торрент: Зарегистрирован [ 2016-03-19 20:40 ] · DC8C4830CD7FC3274FBFABE0FD7D21B7183130B9

Скачать .torrent

Скачать

16 KB

Статус: проверено
Скачан: 0 раз
Размер: 404 MB
terms.php



Быстрый ответ

Имя:

      
Для отправки сообщений необходимо включить JavaScript
Показать сообщения:    

Текущее время: 09-Дек 20:28

Часовой пояс: UTC + 3


Вы можете начинать темы
Вы можете отвечать на сообщения
Вы не можете редактировать свои сообщения
Вы не можете удалять свои сообщения
Вы не можете голосовать в опросах
Вы не можете прикреплять файлы к сообщениям
Вы можете скачивать файлы