[TR24][OF] Giovanni Gabrieli - Venise sur Garonne (Les Sacqueboutiers, Jean Dekyndt) - 2014 (Classical)


Статистика раздачи [Обновить пиров]
Размер:  763 MB   |    Зарегистрирован:  8 месяцев 18 дней   |    Скачан:  0 раз

Полного источника не было: Никогда

 
   
 
 
 

[Цитировать]

Giovanni Gabrieli
Venise sur Garonne
Les Sacqueboutiers
- Год издания: 2014
Жанр: Classical
Издатель (лейбл): Flora
Продолжительность: 01:19:14
Наличие сканов: Sleeve, Digital Booklet
- -
01. Symphoniae Sacrae (1587): Canzon duodecimi toni in eco à 10 (4:04)
02. Symphoniae Sacrae (1615): Canzon VIII à 8 (3:41)
03. Symphoniae Sacrae (1597): Canzon duodecimi toni à 10 (5:33)
04. Symphoniae Sacrae (1615): Canzon III à 6 (3:06)
05. Symphoniae Sacrae (1615): Sonata XVIII à 14 (6:59)
06. Symphoniae Sacrae (1597): Canzon noni toni à 12 (3:51)
07. Symphoniae Sacrae (1615): Canzon IV à 6 (2:41)
08. Symphoniae Sacrae (1615): Canzon XVI à 12 (4:12)
09. Symphoniae Sacrae (1597): Sonata « piano & forte » à 8 (4:37)
10. Symphoniae Sacrae (1615): Canzon XVII à 12 (3:33)
11. Symphoniae Sacrae (1615): Canzon prima à 5 (2:40)
12. Symphoniae Sacrae (1597): Canzon septimi & octavi toni à 12 (3:13)
13. Symphoniae Sacrae (1615): Sonate XXI (4:30)
14. Symphoniae Sacrae (1597): Canzon octavo toni à 12 (3:54)
15. Symphoniae Sacrae (1615): Canzon X à 8 (4:11)
16. Raveri (1608): La Spiritata à 4 (3:09)
17. Symphoniae Sacrae (1597): Canzon quarto toni à 15 (4:14)
18. Symphoniae Sacrae (1615): Canzon II à 6 (3:54)
19. Symphoniae Sacrae (1615): Sonata XX à 22 (7:10)
-
Les Sacqueboutiers, ensemble
Monsieur Jean Dekyndt, director
Recorded: March 2014 at l’annexe Barrière de Paris du Conservatoire à Rayonnement Régional de Toulouse
-Контейнер: FLAC (*.flac)
Тип рипа: tracks
Разрядность: 24bit / 44.1kHz
Количество каналов: 2.0
-О релизе
During the 16th century, in San Marco, Venice, two organs faced each other in the loft surrounding the choir. Both organist positions were occupied by famous musiciens such as Giovanni Gabrieli, pupil of his uncle Andréa, and Gioseffo Guami, a pupil of Adrian Willaert.
The location of these instruments allowed these musicians to compose pieces for several groups of voices which were still called 'choirs'. The part played by these 'choirs' became more important, and finally the composition of purely instrumental music resulted in the conception of magnificent 'Canzoni' whose style was progressively exported to the whole of 17th century Europe.
The programme 'Venise sur Garonne' (Venice on the Garonne river) gathers the most prominent pieces of work mostly devoted to cornetti and sackbuts and specially the 'Canzoni' requiring the largest number of instruments, up to 22 distinct voices distributed among 5 different choirs. This form of composition, highly appreciated during the baroque period, progressively disappeared with the emergence of the symphony orchestra.
Thanks to the magnificence of this Venetian repertoire, so representative of ancient brass instruments Les Sacqueboutiers naturally chose to pay tribute to the great polyphonist of this period, Giovanni Gabrieli.

ОтчётыДинамический диапазон

foobar2000 1.2.2 / Dynamic Range Meter 1.1.1
log date: 2015-02-02 15:43:27
--------------------------------------------------------------------------------
Analyzed: Les Sacqueboutiers / Gabrieli: Venise sur Garonne
--------------------------------------------------------------------------------
DR Peak RMS Duration Track
--------------------------------------------------------------------------------
DR10 -1.92 dB -15.21 dB 4:04 ?-Symphoniae Sacrae (1587): Canzon duodecimi toni in eco à 10
DR12 -0.73 dB -17.69 dB 3:41 ?-Symphoniae Sacrae (1615): Canzon VIII à 8
DR11 -2.42 dB -15.99 dB 5:33 ?-Symphoniae Sacrae (1597): Canzon duodecimi toni à 10
DR11 -1.62 dB -17.44 dB 3:06 ?-Symphoniae Sacrae (1615): Canzon III à 6
DR11 -0.30 dB -15.19 dB 6:59 ?-Symphoniae Sacrae (1615): Sonata XVIII à 14
DR10 -1.75 dB -15.94 dB 3:51 ?-Symphoniae Sacrae (1597): Canzon noni toni à 12
DR11 -1.99 dB -17.25 dB 2:41 ?-Symphoniae Sacrae (1615): Canzon IV à 6
DR10 -3.98 dB -18.41 dB 4:12 ?-Symphoniae Sacrae (1615): Canzon XVI à 12
DR13 -0.04 dB -16.77 dB 4:37 ?-Symphoniae Sacrae (1597): Sonata « piano & forte » à 8
DR11 -2.67 dB -17.36 dB 3:33 ?-Symphoniae Sacrae (1615): Canzon XVII à 12
DR10 -3.65 dB -17.69 dB 2:40 ?-Symphoniae Sacrae (1615): Canzon prima à 5
DR10 -2.95 dB -16.26 dB 3:13 ?-Symphoniae Sacrae (1597): Canzon septimi & octavi toni à 12
DR10 -6.07 dB -18.58 dB 4:30 ?-Symphoniae Sacrae (1615): Sonate XXI
DR10 -1.79 dB -15.56 dB 3:54 ?-Symphoniae Sacrae (1597): Canzon octavo toni à 12
DR10 -1.67 dB -17.00 dB 4:11 ?-Symphoniae Sacrae (1615): Canzon X à 8
DR11 -4.82 dB -18.86 dB 3:09 ?-Raveri (1608): La Spiritata à 4
DR10 -1.64 dB -16.26 dB 4:14 ?-Symphoniae Sacrae (1597): Canzon quarto toni à 15
DR10 -2.05 dB -15.14 dB 3:54 ?-Symphoniae Sacrae (1615): Canzon II à 6
DR10 -0.40 dB -16.28 dB 7:10 ?-Symphoniae Sacrae (1615): Sonata XX à 22
--------------------------------------------------------------------------------
Number of tracks: 19
Official DR value: DR11
Samplerate: 44100 Hz
Channels: 2
Bits per sample: 24
Bitrate: 1313 kbps
Codec: FLAC
================================================================================

Скриншот спектра частот

Доп. информация

При скачивании, если необходимо, переименуйте папку, в которой будет находиться альбомБольшая просьба к скачавшим поддерживать раздачу! Помогайте другим, ведь вам тоже может понадобиться помощь!Не забываем говорить "Спасибо"!Комментарии приветствуются!
[teatrix.ru].t20296.torrent 
Торрент: Зарегистрирован [ 2016-03-19 20:40 ] · 7395934AC5FF51D81DB098A1B8497A190A1162F5

Скачать .torrent

Скачать

17 KB

Статус: проверено
Скачан: 0 раз
Размер: 763 MB
terms.php



Быстрый ответ

Имя:

      
Для отправки сообщений необходимо включить JavaScript
Показать сообщения:    

Текущее время: 06-Дек 22:54

Часовой пояс: UTC + 3


Вы можете начинать темы
Вы можете отвечать на сообщения
Вы не можете редактировать свои сообщения
Вы не можете удалять свои сообщения
Вы не можете голосовать в опросах
Вы не можете прикреплять файлы к сообщениям
Вы можете скачивать файлы