[TR24][OF] Johannes Brahms - Klavierkonzerte Nr. 1, 2 (Stephen Hough, Mozarteumorchester Salzburg, Mark Wigglesworth) - 2013 (Classical)

DL-List and Torrent activity [Update пиров]
Size:  1.59 GB   |    Registered:  7 months 6 days   |    Completed:  0 times

Seeder not seen: Never



Johannes Brahms
The Piano Concertos
Stephen Hough • Mozarteumorchester Salzburg • Mark Wigglesworth
- Год издания: 2013
Жанр: Classical
Издатель (лейбл): Hyperion Records
Продолжительность: 01:37:58
Наличие сканов: Sleeve, Digital Booklet
- -
Johannes Brahms (1833-1897)
Piano Concerto No 1 in D minor, Op 15
01. 1. Maestoso (22:54)
02. 2. Adagio (13:28)
03. 3. Rondo- Allegro non troppo (12:41)
Piano Concerto No 2 in B flat major, Op 83
04. 1. Allegro non troppo (18:20)
05. 2. Allegro appassionato (9:10)
06. 3. Andante (11:54)
07. 4. Allegretto grazioso (9:31)
-Stephen Hough, piano
Mozarteumorchester Salzburg
Mark Wigglesworth, conductor
Recorded: 11-15 January 2013 at Salzburger Festspielhaus, Austria
-Контейнер: FLAC (*.flac)
Тип рипа: tracks
Разрядность: 24bit / 96kHz
Количество каналов: 2.0
-О релизе
This attractively priced double set is one of Stephen Hough’s most important recordings. ‘Britain’s greatest living pianist’ (The Mail on Sunday) is joined by the Mozarteumorchester Salzburg and international conductor Mark Wigglesworth in their Hyperion debut for Brahms’s Piano Concertos. These works are among the greatest in the genre, and shore up Brahms’s reputation as both a symphonist and a piano composer. Separated by twenty-two years and widely differing in their reception (the first was scorned and the second a huge success), they are monumental in scale, impassioned and truly romantic, forward-looking in form and requiring both great virtuosity and intimacy from the pianist. Stephen Hough has performed them in concert for many years to ecstatic acclaim: this new recording is surely one of his most desirable offerings.
'I ended up delighted by and in complete admiration of Hough's boldness. He has become a warmer player of increased range in Brahms, and unafraid to take risks … the concertos call for a brilliant, interesting and capricious personality who will make them compelling as discourse. I cannot believe Brahms would have expected anything else' --Gramophone
'Stephen Hough has proved himself a superb Brahms player in various discs of the solo piano music, and this very satisfying double album of the two Concertos confirms and augments his reputation. Clearly working in absolute rapport with Mark Wigglesworth … Hough brings an unusually wide range of keyboard colour to bear on Brahms's piano writing. Added to that his complete understanding of the broadest trajectory and subtlest nuances of these works is reflected in his subtle flexibility of tempo and dynamics to underline expressive points that in some other performances go for nothing … this admirable set richly deserves its five stars' --BBC Music Magazine

ОтчётыДинамический диапазон

foobar2000 1.2.2 / Dynamic Range Meter 1.1.1
log date: 2015-02-06 12:06:13
Analyzed: Stephen Hough, Mark Wigglesworth, Mozarteumorchester Salzburg / Brahms: The Piano Concertos
DR Peak RMS Duration Track
DR14 -0.22 dB -19.93 dB 22:54 ?-Piano Concerto No 1 in D minor, Op 15 - 1. Maestoso
DR15 -3.43 dB -26.59 dB 13:28 ?-Piano Concerto No 1 in D minor, Op 15 - 2. Adagio
DR14 -0.50 dB -20.26 dB 12:41 ?-Piano Concerto No 1 in D minor, Op 15 - 3. Rondo- Allegro non troppo
DR14 -0.46 dB -20.17 dB 18:20 ?-Piano Concerto No 2 in B flat major, Op 83 - 1. Allegro non troppo
DR13 -0.18 dB -18.90 dB 9:10 ?-Piano Concerto No 2 in B flat major, Op 83 - 2. Allegro appassionato
DR16 -1.50 dB -26.09 dB 11:54 ?-Piano Concerto No 2 in B flat major, Op 83 - 3. Andante
DR14 -1.41 dB -20.84 dB 9:31 ?-Piano Concerto No 2 in B flat major, Op 83 - 4. Allegretto grazioso
Number of tracks: 7
Official DR value: DR14
Samplerate: 96000 Hz
Channels: 2
Bits per sample: 24
Bitrate: 2382 kbps
Codec: FLAC

Скриншот спектра частот

Доп. информация

При скачивании, если необходимо, переименуйте папку, в которой будет находиться альбомБольшая просьба к скачавшим поддерживать раздачу! Помогайте другим, ведь вам тоже может понадобиться помощь!Не забываем говорить "Спасибо"!Комментарии приветствуются!
Torrent: Registered [ 2016-03-19 20:40 ] · C75C37C2A2B508EB2AD34D0D79D5D3C890C0CF62

Download .torrent


17 KB

Status: checked
Completed: 0 times
Size: 1.59 GB

Quick Reply


Heads necessary to send messages to enable JavaScript
Display posts:    

Current time is: 26-Oct 12:26

All times are UTC + 3

You can post new topics in this forum
You can reply to topics in this forum
You cannot edit your posts in this forum
You cannot delete your posts in this forum
You cannot vote in polls in this forum
You cannot attach files in this forum
You can download files in this forum