Мадемуазель Кики с Монпарнаса / Mademoiselle Kiki et les Montparnos (Амели Арро / Amelie Harrault) [2013, Франция, авангард, сюрреализм, биографический, анимация, короткий метр, DVB] Original (Fre) + Sub (rus)


 

[Цитировать]

Мадемуазель Кики с Монпарнаса
Mademoiselle Kiki et les Montparnos- Страна: Франция
Жанр: авангард, сюрреализм, биографический, анимация, короткий метр
Год выпуска: 2013
Продолжительность: 00:13:49
Перевод: Субтитры (перевод И.Безлюдной, Éclair Group)
Cубтитры: русские
Оригинальная аудиодорожка: французский
Режиссер: Амели Арро / Amélie HarraultВ ролях: Мари-Кристин Орри / Marie-Christine Orry (Kiki), Селин Ламбер / Céline Lambert (Kiki jeune), Мэттью Геци / Matthew Géczy (Man Ray / Hemingway), Жан-Пьер де Джорджио / Jean-Pierre de Giorgio (Modigliani)
Описание: Анимационная короткометражка Амели Арро "Кики с Монпарнаса" достаточно вольно пересказывает автобиографию знаменитой натурщицы Алисы Прен. В четырнадцать минут экранного времени Амели постаралась втиснуть максимум звездных имен из бесчисленной когорты любовников Кики, время от времени разбавляя происходящее приятным анекдотом на тему первого платья, сшитого из рекламных образцов или же эпатирующей книжицы с индийскими трактатами о возлежании. За четырнадцать минут перед нами проносятся мечты и надежды, желания, увлечения, взлеты, разочарования, — весь тот нескончаемый поток эмоций, что наполняли жизнь Кики. Однако все эти рассуждения о жизни и успехе, живописи и кинематографе меркнут, когда на сцену выходят творцы, для которых она становилась музой. (Snark_X)
Доп. информация: TV5MONDE DVB-S
Награды: включен в шорт-лист премии "Оскар" 2014 в категории "Лучший короткометражный анимационный фильм"; премия "Сезар" 2014 за лучший короткометражный фильм; номинация на приз "Кристалл" за лучшую короткометражку Annecy International Animated Film Festival 2013; 20 номинаций Festival international du court métrage de Clermont-Ferrand 2013; др. награды.

Качество видео: DVB
Формат видео: MKV
Видео: MPEG Video 2, 704x576@1024x576 (16:9), 25 fps, ~3380 kbps avg, 0.333 bit/pixel
Аудио: Французский (MPEG Audio 2, 2 ch, 48 kHz, ~192.00 kbps avg)
Формат субтитров: hardsub (неотключаемые)

MediaInfo

Общее
Уникальный идентификатор : 224158815967223455715666473159326376738 (0xA8A36AE7A2814C8082CDA03F33A72322)
Полное имя : E:\My Torrents 2\[apreder]MINI_MOVIES_09\[apreder]MM_Mademoiselle_Kiki_et_les_Montparnos(2013)DVB.mkv
Формат : Matroska
Версия формата : Version 2
Размер файла : 361 Мбайт
Продолжительность : 13 м.
Режим общего битрейта : Переменный
Общий поток : 3645 Кбит/сек
Дата кодирования : UTC 2015-02-06 14:00:53
Программа кодирования : mkvmerge v7.5.0 ('Glass Culture') 64bit built on Jan 4 2015 16:48:44
Библиотека кодирования : libebml v1.3.1 + libmatroska v1.4.2
Видео
Идентификатор : 1
Формат : MPEG Video
Версия формата : Version 2
Профиль формата : Main@Main
Параметр BVOP формата : Да
Параметр матрицы формата : Выборочная
Параметр GOP формата : M=3, N=15
Format_Settings_PictureStructure : Frame
Идентификатор кодека : V_MPEG2
Идентификатор кодека/Информация : MPEG 1 or 2 Video
Продолжительность : 13 м.
Вид битрейта : Переменный
Битрейт : 3380 Кбит/сек
Ширина : 704 пикселя
Высота : 576 пикселей
Соотношение сторон : 16:9
Режим частоты кадров : Постоянный
Частота кадров : 25,000 кадров/сек
Стандарт вещания : PAL
Цветовое пространство : YUV
Субдискретизация насыщенности : 4:2:0
Битовая глубина : 8 бит
Тип развёртки : Чересстрочная
Порядок развёртки : Верхнее поле первое
Метод сжатия : С потерями
Бит/(Пиксели*Кадры) : 0.333
Временной код первого кадра : 00:00:00:00
Оригинал временного кода : Group of pictures header
Размер потока : 334 Мбайт (93%)
Default : Да
Forced : Нет
Gop_OpenClosed_FirstFrame : Closed
Аудио
Идентификатор : 2
Формат : MPEG Audio
Версия формата : Version 1
Профиль формата : Layer 2
Идентификатор кодека : A_MPEG/L2
Идентификатор кодека/Подсказка : MP2
Продолжительность : 13 м.
Вид битрейта : Постоянный
Битрейт : 192 Кбит/сек
Каналы : 2 канала
Частота : 48,0 КГц
Метод сжатия : С потерями
Размер потока : 19,0 Мбайт (5%)
Язык : French
Default : Да
Forced : Нет

Скриншот c названием фильма

Скриншоты

Резервные скриншоты

-[2'096]



Показать сообщения:    

Текущее время: 03-Дек 12:32

Часовой пояс: UTC + 3


Вы не можете начинать темы
Вы не можете отвечать на сообщения
Вы не можете редактировать свои сообщения
Вы не можете удалять свои сообщения
Вы не можете голосовать в опросах
Вы не можете прикреплять файлы к сообщениям
Вы не можете скачивать файлы