Пьетро Джерми. Хороший, красивый и ужасный / Pietro Germi - Il bravo, il bello, il cattivo (Клаудио Бонди / Claudio Bondi) [2009, документальный, биографический, DVB] DVO (Первый канал)


Статистика раздачи [Обновить пиров]
Размер:  1.36 GB   |    Зарегистрирован:  8 месяцев 19 дней   |    Скачан:  0 раз

Полного источника не было: Никогда

 
   
 
 
 

[Цитировать]

Пьетро Джерми. Хороший, красивый и ужасный
Pietro Germi - Il bravo, il bello, il cattivo- Дата/Год выпуска: 2009
Страна: Италия
Жанр: документальный, биографический
Продолжительность: 00:58:17
Перевод: Профессиональный (двухголосый закадровый)
Доп. инфо о переводе: По заказу ЗАО "Первый канал. Всемирная сеть"
Русские субтитры: нет
Режиссер: Клаудио Бонди / Claudio Bondì
Телеканал: Время: далекое и близкоеВ ролях: Пупи Авати, Клаудиа Кардинале, Вирна Лизи, Карло Лидзани, Джанни Моранди, Стефания Сандрелли
Описание: Жил себе как-то мужчина. Он был "стыдливым, тихим человеком, который любил теплое просторное окружение большой комнаты, возможно, потому, что оно давало ему ощущение уединения". Он был человеком недоверчивым, боялся перейти на другую сторону площади или зайти в бар, поскольку со страхом чувствовал на себе множество взглядов любознательных незнакомцев. Это - кинематографическое путешествие "Пьетро Джерми. Хорошего, красивого, плохого" со времени завершения неореализма к появлению стиля итальянской комедии, от безукоризненной конструкции жанровых фильмов к экспериментам с новыми направлениями. Мужчина с сигарой и "закатанными брюками" как о нем писали - заново изображенный в свидетельствах его окружения. Портрет, на котором, - выдающаяся кинематографическая работа "Большого плотника". Именно такое прозвище дал Федерико Феллини своему другу Пьетро Джерми.
Доп. информация: DVB-S
Участник Cannes Film Festival 2009.

качество: DVB
формат: MKV
Видео: MPEG Video 2, 720x576@768x576 (4:3), 25 fps, ~3091 kbps avg, 0.298 bit/pixel
Аудио: MPEG Audio 2, 2 ch, 48 kHz, ~192.00 kbps avg

MediaInfo

Общее
Уникальный идентификатор : 215884462488844327311528405099395105114 (0xA269D5C8089B604CA26696E3ABCF415A)
Полное имя : E:\My Torrents 2\[apreder]Pietro_Germi_Il_bravo_il_bello_il_cattivo(2009)DVB.mkv
Формат : Matroska
Версия формата : Version 2
Размер файла : 1,36 Гбайт
Продолжительность : 58 м.
Режим общего битрейта : Переменный
Общий поток : 3349 Кбит/сек
Дата кодирования : UTC 2015-02-06 16:09:13
Программа кодирования : mkvmerge v7.5.0 ('Glass Culture') 64bit built on Jan 4 2015 16:48:44
Библиотека кодирования : libebml v1.3.1 + libmatroska v1.4.2
Видео
Идентификатор : 1
Формат : MPEG Video
Версия формата : Version 2
Профиль формата : Main@Main
Параметр BVOP формата : Да
Параметр матрицы формата : Выборочная
Параметр GOP формата : M=3, N=12
Format_Settings_PictureStructure : Frame
Идентификатор кодека : V_MPEG2
Идентификатор кодека/Информация : MPEG 1 or 2 Video
Продолжительность : 58 м.
Вид битрейта : Переменный
Битрейт : 3091 Кбит/сек
Ширина : 720 пикселей
Высота : 576 пикселей
Соотношение сторон : 4:3
Режим частоты кадров : Постоянный
Частота кадров : 25,000 кадров/сек
Стандарт вещания : PAL
Цветовое пространство : YUV
Субдискретизация насыщенности : 4:2:0
Битовая глубина : 8 бит
Тип развёртки : Чересстрочная
Порядок развёртки : Верхнее поле первое
Метод сжатия : С потерями
Бит/(Пиксели*Кадры) : 0.298
Временной код первого кадра : 00:00:00:00
Оригинал временного кода : Group of pictures header
Размер потока : 1,26 Гбайт (92%)
Default : Да
Forced : Нет
Gop_OpenClosed_FirstFrame : Closed
Аудио
Идентификатор : 2
Формат : MPEG Audio
Версия формата : Version 1
Профиль формата : Layer 2
Идентификатор кодека : A_MPEG/L2
Идентификатор кодека/Подсказка : MP2
Продолжительность : 58 м.
Вид битрейта : Постоянный
Битрейт : 192 Кбит/сек
Каналы : 2 канала
Частота : 48,0 КГц
Метод сжатия : С потерями
Размер потока : 80,0 Мбайт (6%)
Язык : Russian
Default : Да
Forced : Нет

Скриншоты


Резервные скриншоты


-[2'098]
[teatrix.ru].t20304.torrent 
Торрент: Зарегистрирован [ 2016-03-19 20:40 ] · 4F0EB471260D3CA1E9D691F222DF6A83296CCA6D

Скачать .torrent

Скачать

14 KB

Статус: проверено
Скачан: 0 раз
Размер: 1.36 GB
terms.php



Быстрый ответ

Имя:

      
Для отправки сообщений необходимо включить JavaScript
Показать сообщения:    

Текущее время: 07-Дек 21:25

Часовой пояс: UTC + 3


Вы можете начинать темы
Вы можете отвечать на сообщения
Вы не можете редактировать свои сообщения
Вы не можете удалять свои сообщения
Вы не можете голосовать в опросах
Вы не можете прикреплять файлы к сообщениям
Вы можете скачивать файлы