[TR24][SM][OF] Wood Works - The Danish String Quartet - 2014 (Classical, Traditional)


Статистика раздачи [Обновить пиров]
Размер:  836 MB   |    Зарегистрирован:  8 месяцев 15 дней   |    Скачан:  0 раз

Полного источника не было: Никогда

 
   
 
 
 

[Цитировать]

Wood Works
The Danish String Quartet
Жанр: Chamber Music
Носитель: Official Digital Download
Год издания/переиздания диска: 2014
Издатель(лейбл): Dacapo Records
Номер по каталогу: 8.226081
Продолжительность: 49:27
Наличие сканов в содержимом раздачи: cover art, inlay, booklet
Контейнер: FLAC (*.flac)
Разрядность: 24/88,2
Количество каналов: 2.0
Формат: tracks
Источник: dacapo-records.dk
Pелизер: WEB (thanks to the original customer)

http://www.dacapo-records.dk/en/recording-wood-works--the-danish-string-quartet.aspx

Треклист

01 Ye Honest Bridal Couple / Sønderho Bridal Trilogy – Part I(5:10)
02 Sekstur from Vendsyssel / The Peat Dance (4:02)
03 Vigstamoin (3:20)
04 Waltz after Lasse in Lyby (4:42)
05 Ribers #8 (2:59)
06 Sønderho Bridal Trilogy – Part II (3:10)
07 Five Sheep, Four Goats (4:30)
08 O Fredrik, O Fredrik (4:15)
09 Ack Värmeland, du sköna (3:16)
10 Easter Sunday / Polsk after Rasmus Storm (4:23)
11 Jässpodspolska (2:54)
12 Old Reinlender from Sønndala (3:06)
13 Sønderho Bridal Trilogy – Part III (3:40)
All arrangements by The Danish String Quartet except
for track 13 arranged by Nikolaj Busk

The Danish String Quartet

Rune Tonsgaard Sørensen violin
Frederik Øland violin
Asbjørn Nørgaard viola
Fredrik Schøyen Sjölin cello

Dynamic Range Meter

foobar2000 1.2.6 / Dynamic Range Meter 1.1.1
log date: 2015-02-06 21:39:27
--------------------------------------------------------------------------------
Analyzed: The Danish String Quartet / Wood Works
--------------------------------------------------------------------------------
DR Peak RMS Duration Track
--------------------------------------------------------------------------------
DR12 -2.38 dB -22.05 dB 5:11 01-Ye Honest Bridal Couple / Sønderho Bridal Trilogy - Part I
DR14 -1.60 dB -21.41 dB 4:02 02-Sekstur from Vendsyssel / The Peat Dance
DR12 -4.85 dB -21.13 dB 3:20 03-Vigstamoin
DR12 -5.38 dB -22.51 dB 4:43 04-Waltz after Lasse in Lyby
DR12 -2.03 dB -18.95 dB 2:58 05-Ribers #8
DR12 -2.82 dB -20.86 dB 3:10 06-Sønderho Bridal Trilogy - Part II
DR12 -1.89 dB -21.25 dB 4:31 07-Five Sheep, Four Goats
DR12 -2.99 dB -18.77 dB 4:15 08-O Fredrik, O Fredrik
DR12 -4.34 dB -22.79 dB 3:16 09-Ack Värmeland, du sköna
DR13 -4.73 dB -22.97 dB 4:23 10-Easter Sunday / Polsk after Rasmus Storm
DR11 -4.37 dB -20.85 dB 2:54 11-Jässpodspolska
DR13 -0.84 dB -18.17 dB 3:06 12-Old Reinlender from Sønndala
DR13 -9.13 dB -27.70 dB 3:40 13-Sønderho Bridal Trilogy - Part III
--------------------------------------------------------------------------------
Number of tracks: 13
Official DR value: DR12
Samplerate: 88200 Hz
Channels: 2
Bits per sample: 24
Bitrate: 2152 kbps
Codec: FLAC
================================================================================
[teatrix.ru].t20305.torrent 
Торрент: Зарегистрирован [ 2016-03-19 20:40 ] · 9ACAD1FEBDD86DF6DE4579A5B76D2B5BB13237A0

Скачать .torrent

Скачать

18 KB

Статус: проверено
Скачан: 0 раз
Размер: 836 MB
terms.php



Быстрый ответ

Имя:

      
Для отправки сообщений необходимо включить JavaScript
Показать сообщения:    

Текущее время: 04-Дек 00:52

Часовой пояс: UTC + 3


Вы можете начинать темы
Вы можете отвечать на сообщения
Вы не можете редактировать свои сообщения
Вы не можете удалять свои сообщения
Вы не можете голосовать в опросах
Вы не можете прикреплять файлы к сообщениям
Вы можете скачивать файлы