[TR24][OF] Wolfgang Amadeus Mozart - Divertimenti K. 240, 270, 252, 253; Serenade K. 375 (Scottish Chamber Orchestra) - 2015 (Classical)


Статистика раздачи [Обновить пиров]
Размер:  1.1 GB   |    Зарегистрирован:  8 месяцев 21 день   |    Скачан:  1 раз

Полного источника не было: 3 месяца 3 дня

 
   
 
 
 

[Цитировать]

Wolfgang Amadeus Mozart
Divertimenti
Scottish Chamber Orchestra
- Год издания: 2015
Жанр: Classical
Издатель (лейбл): Linn Records
Продолжительность: 01:07:08
Наличие сканов: Sleeve, Inlay, Digital Booklet
- -
Wolfgang Amadeus Mozart (1756-1791)
Serenade in E flat major, K. 375
01. I. Allegro maestoso (10:26)
02. II. Menuetto e trio (3:55)
03. III. Adagio (5:25)
04. IV. Menuetto e trio (2:44)
05. V. Finale. Allegro (3:27)
Divertimento in F major, K. 253
06. Thema mit variationen (0:49)
07. Variation I (0:50)
08. Variation II (0:52)
09. Variation III (0:55)
10. Variation IV (0:54)
11. Variation V (1:26)
12. Variation VI (0:38)
13. Menuetto e trio (2:28)
14. Allegro assai (1:55)
Divertimento in B flat major, K. 270
15. I. Allegro molto (4:06)
16. II. Andantino (1:55)
17. III. Menuetto e trio (2:29)
18. IV. Presto (1:41)
Divertimento in E flat major, K. 252/240a
19. I. Andante (2:56)
20. II. Menuetto e trio (2:44)
21. III. Polonaise (2:29)
22. IV. Presto assai (1:29)
Divertimento in B flat major, K. 240
23. I. Allegro (3:06)
24. II. Andante grazioso (2:34)
25. III. Menuetto e trio (2:14)
26. IV. Allegro (2:42)
-Контейнер: FLAC (*.flac)
Тип рипа: tracks
Разрядность: 24bit / 96kHz
Количество каналов: 2.0
-О релизе
Following the success of performances and recordings of Weber's Wind Concertos with SCO principals as soloists, the SCO Wind Soloists that feature on this album have since 2012 started to explore Harmoniemusik repertoire. Inspired by the legacy of the great Mozartian conductors of the SCO including Sir Charles Mackerras, the Wind Soloists make a fine contribution to the SCO's distinguished Mozart discography. This new recording includes four of the five Tafelmusik sextets for pairs of clarinets, horns and bassoons, together with the Serenade in E flat major, the first of Mozart's three great wind serenades. The Serenade in E flat major has many unusual features. Its opening fanfare - a series of repeated chords on the tonic in E flat - immediately catches the ear. The fact that Mozart avoids fatiguing the listener with a surfeit of the same sonorities, in music with a necessarily limited dynamic and instrumental range, bears eloquent testimony to his genius.This recording captures the wealth of detail in Mozart's Divertimenti; there is something in each of them for every music lover. Comprising pairs of clarinet, bassoons and natural horns, the players are dedicated to performing each work in a stylish and informed way, from the masterpieces of Mozart, Beethoven and Weber to twentieth-century works and contemporary commissions. The SCO Wind Soloists are: Maximiliano Martín clarinet, William Stafford clarinet, Peter Whelan bassoon, Alison Green bassoon, Alec Frank-Gemmill horn, Harry Johnstone horn. The SCO Wind Soloists have appeared in chamber concerts throughout Scotland. They have also performed at the Palace of Holyroodhouse in the presence of HRH The Prince Charles.
-
Maximiliano Martín clarinet
William Stafford clarinet
Peter Whelan bassoon
Alison Green bassoon
Alec Frank-Gemmill horn
Harry Johnstone horn

ОтчётыДинамический диапазон

foobar2000 1.2.2 / Dynamic Range Meter 1.1.1
log date: 2015-02-06 18:18:54
--------------------------------------------------------------------------------
Analyzed: Scottish Chamber Orchestra / Mozart: Divertimenti
--------------------------------------------------------------------------------
DR Peak RMS Duration Track
--------------------------------------------------------------------------------
DR13 -2.88 dB -20.66 dB 10:26 ?-Serenade in E flat major, K. 375: I. Allegro maestoso
DR13 -2.84 dB -20.27 dB 3:55 ?-Serenade in E flat major, K. 375: II. Menuetto e trio
DR12 -4.68 dB -21.73 dB 5:25 ?-Serenade in E flat major, K. 375: III. Adagio
DR13 -3.96 dB -21.81 dB 2:44 ?-Serenade in E flat major, K. 375: IV. Menuetto e trio
DR13 -3.66 dB -20.40 dB 3:27 ?-Serenade in E flat major, K. 375: V. Finale. Allegro
DR12 -3.40 dB -19.63 dB 0:49 ?-Divertimento in F major, K. 253: Thema mit variationen
DR13 -3.17 dB -20.60 dB 0:50 ?-Divertimento in F major, K. 253: Variation I
DR12 -4.76 dB -20.80 dB 0:52 ?-Divertimento in F major, K. 253: Variation II
DR10 -4.82 dB -19.75 dB 0:55 ?-Divertimento in F major, K. 253: Variation III
DR11 -2.68 dB -16.97 dB 0:54 ?-Divertimento in F major, K. 253: Variation IV
DR10 -5.26 dB -21.84 dB 1:26 ?-Divertimento in F major, K. 253: Variation V
DR11 -3.72 dB -18.45 dB 0:38 ?-Divertimento in F major, K. 253: Variation VI
DR13 -3.72 dB -20.21 dB 2:28 ?-Divertimento in F major, K. 253: Menuetto e trio
DR13 -0.26 dB -17.82 dB 1:55 ?-Divertimento in F major, K. 253: Allegro assai
DR13 -0.79 dB -18.27 dB 4:06 ?-Divertimento in B flat major, K. 270: I. Allegro molto
DR11 -4.05 dB -19.39 dB 1:55 ?-Divertimento in B flat major, K. 270: II. Andantino
DR12 -2.69 dB -19.23 dB 2:29 ?-Divertimento in B flat major, K. 270: III. Menuetto e trio
DR13 -0.59 dB -18.28 dB 1:41 ?-Divertimento in B flat major, K. 270: IV. Presto
DR12 -4.02 dB -21.60 dB 2:56 ?-Divertimento in E flat major, K. 252/240a: I. Andante
DR12 -3.87 dB -20.84 dB 2:44 ?-Divertimento in E flat major, K. 252/240a: II. Menuetto e trio
DR12 -3.78 dB -20.03 dB 2:29 ?-Divertimento in E flat major, K. 252/240a: III. Polonaise
DR15 -1.00 dB -21.99 dB 1:29 ?-Divertimento in E flat major, K. 252/240a: IV. Presto assai
DR13 -0.36 dB -17.85 dB 3:06 ?-Divertimento in B flat major, K. 240: I. Allegro
DR12 -3.23 dB -19.50 dB 2:34 ?-Divertimento in B flat major, K. 240: II. Andante grazioso
DR13 -1.53 dB -18.75 dB 2:14 ?-Divertimento in B flat major, K. 240: III. Menuetto e trio
DR13 -1.89 dB -18.72 dB 2:42 ?-Divertimento in B flat major, K. 240: IV. Allegro
--------------------------------------------------------------------------------
Number of tracks: 26
Official DR value: DR12
Samplerate: 96000 Hz
Channels: 2
Bits per sample: 24
Bitrate: 2361 kbps
Codec: FLAC
================================================================================

Скриншот спектра частот

Доп. информация

При скачивании, если необходимо, переименуйте папку, в которой будет находиться альбомБольшая просьба к скачавшим поддерживать раздачу! Помогайте другим, ведь вам тоже может понадобиться помощь!Не забываем говорить "Спасибо"!Комментарии приветствуются!
[teatrix.ru].t20306.torrent 
Торрент: Зарегистрирован [ 2016-03-19 20:40 ] · 1E9FEA1F3D052FC90DA84363021028DF5DCCF36C

Скачать .torrent

Скачать

14 KB

Статус: проверено
Скачан: 1 раз
Размер: 1.1 GB
terms.php



Быстрый ответ

Имя:

      
Для отправки сообщений необходимо включить JavaScript
Показать сообщения:    

Текущее время: 10-Дек 00:13

Часовой пояс: UTC + 3


Вы можете начинать темы
Вы можете отвечать на сообщения
Вы не можете редактировать свои сообщения
Вы не можете удалять свои сообщения
Вы не можете голосовать в опросах
Вы не можете прикреплять файлы к сообщениям
Вы можете скачивать файлы