Леонардо да Винчи. Ученик Бога (Михаил Херсонский) [2012, документальная драма, биографический, DVB]


Статистика раздачи [Обновить пиров]
Размер:  1.25 GB   |    Зарегистрирован:  8 месяцев 22 дня   |    Скачан:  0 раз

Полного источника не было: Никогда

 
   
 
 
 

[Цитировать]

Леонардо да Винчи
Ученик Бога- Дата/Год выпуска: 2012
Страна: Украина
Жанр: документальная драма, биографический
Продолжительность: 00:53:27
Перевод: Не требуется
Русские субтитры: нет
Оригинальная аудиодорожка: русский
Режиссер: Михаил Херсонский
Телеканал: Время: далекое и близкоеВ ролях: Кирилл Майкут (молодой Леонардо), Владимир Бугаев (пожилой Леонардо), Тарас Мельничук (Франческо)
Описание: Лучший друг Леонардо да Винчи поведает нам историю жизни гения эпохи Возрождения. Мы познакомимся с юным Леонардо, в котором уже в полной мере проявились любознательность и стремление постигнуть тайны мира. И вот он, первый полет и… первое разочарование.
Франческо будет верным спутником во всех начинаниях Леонардо, какими бы дерзкими они ни были. Чего только стоит аутопсия трупов животных и человека, многочисленные научные опыты, идущие вразрез церковным канонам... Франческо проведет нас по дворцам Милана и Флоренции, в которых Мастер, точно Фауст, будет поглощен поиском истины, в которых он возьмется за многое, но так и не доведет до конца и, в конце концов, где исследователь в Леонардо подавит в нем художника. Авантюризм в науке так и не позволит да Винчи выполнить свой долг перед искусством. (анонс канала "Время")
Доп. информация: DVB-S
Награды: приз globe-GOLD международного фестиваля World Media Festival (Houston) 2014 в подкатегории "Документальная драма"; приз Platinum Remi Award 2014; приз World MEdia Festival (Hannover) 2014.

качество: DVB
формат: MKV
Видео: MPEG Video 2, 720x576@768x576 (4:3), 25 fps, ~3094 kbps avg, 0.298 bit/pixel
Аудио: MPEG Audio 2, 2 ch, 48 kHz, ~192.00 kbps avg

MediaInfo

Общее
Уникальный идентификатор : 243232974525194611993528995103957600661 (0xB6FCF7876AAD7475BE87C3D878144995)
Полное имя : E:\My Torrents 2\[apreder]Leonardo_Da_Vinci(2012)DVB.mkv
Формат : Matroska
Версия формата : Version 2
Размер файла : 1,25 Гбайт
Продолжительность : 53 м.
Режим общего битрейта : Переменный
Общий поток : 3352 Кбит/сек
Дата кодирования : UTC 2015-02-06 18:26:19
Программа кодирования : mkvmerge v7.5.0 ('Glass Culture') 64bit built on Jan 4 2015 16:48:44
Библиотека кодирования : libebml v1.3.1 + libmatroska v1.4.2
Видео
Идентификатор : 1
Формат : MPEG Video
Версия формата : Version 2
Профиль формата : Main@Main
Параметр BVOP формата : Да
Параметр матрицы формата : Выборочная
Параметр GOP формата : M=3, N=12
Format_Settings_PictureStructure : Frame
Идентификатор кодека : V_MPEG2
Идентификатор кодека/Информация : MPEG 1 or 2 Video
Продолжительность : 53 м.
Вид битрейта : Переменный
Битрейт : 3094 Кбит/сек
Ширина : 720 пикселей
Высота : 576 пикселей
Соотношение сторон : 4:3
Режим частоты кадров : Постоянный
Частота кадров : 25,000 кадров/сек
Стандарт вещания : PAL
Цветовое пространство : YUV
Субдискретизация насыщенности : 4:2:0
Битовая глубина : 8 бит
Тип развёртки : Чересстрочная
Порядок развёртки : Верхнее поле первое
Метод сжатия : С потерями
Бит/(Пиксели*Кадры) : 0.298
Временной код первого кадра : 00:00:00:00
Оригинал временного кода : Group of pictures header
Размер потока : 1,16 Гбайт (92%)
Default : Да
Forced : Нет
Gop_OpenClosed_FirstFrame : Closed
Аудио
Идентификатор : 2
Формат : MPEG Audio
Версия формата : Version 1
Профиль формата : Layer 2
Идентификатор кодека : A_MPEG/L2
Идентификатор кодека/Подсказка : MP2
Продолжительность : 53 м.
Вид битрейта : Постоянный
Битрейт : 192 Кбит/сек
Каналы : 2 канала
Частота : 48,0 КГц
Метод сжатия : С потерями
Размер потока : 73,4 Мбайт (6%)
Язык : Russian
Default : Да
Forced : Нет

Скриншоты


Резервные скриншоты


-[2'100]
[teatrix.ru].t20307.torrent 
Торрент: Зарегистрирован [ 2016-03-19 20:40 ] · 147E87A6AF335068B01C639106C026C9C34A2B76

Скачать .torrent

Скачать

13 KB

Статус: проверено
Скачан: 0 раз
Размер: 1.25 GB
terms.php



Быстрый ответ

Имя:

      
Для отправки сообщений необходимо включить JavaScript
Показать сообщения:    

Текущее время: 11-Дек 16:47

Часовой пояс: UTC + 3


Вы можете начинать темы
Вы можете отвечать на сообщения
Вы не можете редактировать свои сообщения
Вы не можете удалять свои сообщения
Вы не можете голосовать в опросах
Вы не можете прикреплять файлы к сообщениям
Вы можете скачивать файлы