(Classical) Handel - Water Music, Suite No.2; Music for the Royal Fireworks, Concerto For Organ No.13; Concerto Grosso In G Major, Op.3 No.3 (Marriner, Linde, Malgoire, Klerk, Rieu) - 1994, FLAC (image+.cue) lossless


 

[Цитировать]

Handel - Water Music, Suite No.2; Music for the Royal Fireworks (Marriner, Linde, Malgoire)
Жанр: Classical
Страна-производитель диска: Holland
Год издания диска: 1994
Издатель (лейбл): EMI, Sony
Номер по каталогу: TuTTi Nr.13
Дата записи: 1967-1990
Аудиокодек: FLAC
Тип рипа: image+.cue
Битрейт аудио: lossless
Продолжительность: 72:00
Источник: собственный рип
сайт-источник/ник/другое: Из личной коллекции
Наличие сканов в содержимом раздачи: да
Треклист:
Handel
Water Music, Suite No.2 In D Major
1. I (andante Allegro) (2:07)
2. Ii Alla Hornpipe (4:04)
3. Iii Minuet (1:46)
4. Iv Lentement (1:46)
5. V Bourrée (1:12)
6. Let The Bright Seraphim (5:48)
Concerto For Organ No.13 In F Major
7. I Larghetto (2:34)
8. Ii Allegro (3:51)
9. Ii Organo Ad Libitum (2:43)
10. Iii Larghetto (3:36)
11. Iv Allegro (3:27)
12. E Pur Cosi In Un Giorno (6:29)
Concerto Grosso In G Major, Op.3 No.3
13. I Largo E Staccato
14. Ii Allegro (2:35)
15. Iii Adagio
16. v Allegro (3:41)
17. Hallelujah (4:27)
Music For The Royal Fireworks
18. I Ouverture (7:19)
19. Ii Bourrée (1:46)
20. Iii La Pais. Largo Alla Siciliana (4:41)
21. Iv La Réjouissance. Allegro (3:51)
22. V Menuet I/ii (3:14)
Исполнители:
ASMF, Neville Marriner:
Wynton Marsalis, EChO, Raymond Leppard;
Albert de Klerk, Amsterdam ChO, Andre Rieu;
Kathleen Battle;
Linde Consort, Hans-Martin Linde;
Choir of King's College, Cambridge, David Willcocks;
La Grande Ecurie et la Chambre du Roy, Jean-Claude Malgoire

Лог создания рипа

Exact Audio Copy V1.0 beta 3 from 29. August 2011
EAC extraction logfile from 23. January 2015, 20:42
Handel, Georg Friedrich / Tutti - CD 13
Used drive : HL-DT-STDVDRAM GSA-T40N Adapter: 0 ID: 0
Read mode : Secure
Utilize accurate stream : Yes
Defeat audio cache : Yes
Make use of C2 pointers : No
Read offset correction : 667
Overread into Lead-In and Lead-Out : No
Fill up missing offset samples with silence : Yes
Delete leading and trailing silent blocks : No
Null samples used in CRC calculations : Yes
Used interface : Native Win32 interface for Win NT & 2000
Used output format : User Defined Encoder
Selected bitrate : 32 kBit/s
Quality : High
Add ID3 tag : No
Command line compressor : C:\Program Files\Exact Audio Copy\Flac\flac.exe
Additional command line options : -V -8 -T "Date=%year%" -T "Genre=%genre%" %source%
TOC of the extracted CD
Track | Start | Length | Start sector | End sector
---------------------------------------------------------
1 | 0:00.00 | 2:07.27 | 0 | 9551
2 | 2:07.27 | 4:04.40 | 9552 | 27891
3 | 6:11.67 | 1:46.38 | 27892 | 35879
4 | 7:58.30 | 1:46.35 | 35880 | 43864
5 | 9:44.65 | 1:12.17 | 43865 | 49281
6 | 10:57.07 | 5:48.48 | 49282 | 75429
7 | 16:45.55 | 2:34.57 | 75430 | 87036
8 | 19:20.37 | 3:51.10 | 87037 | 104371
9 | 23:11.47 | 2:43.63 | 104372 | 116659
10 | 25:55.35 | 3:36.02 | 116660 | 132861
11 | 29:31.37 | 3:27.00 | 132862 | 148386
12 | 32:58.37 | 6:29.13 | 148387 | 177574
13 | 39:27.50 | 0:24.65 | 177575 | 179439
14 | 39:52.40 | 2:35.27 | 179440 | 191091
15 | 42:27.67 | 0:59.03 | 191092 | 195519
16 | 43:26.70 | 3:41.70 | 195520 | 212164
17 | 47:08.65 | 4:27.50 | 212165 | 232239
18 | 51:36.40 | 7:19.40 | 232240 | 265204
19 | 58:56.05 | 1:46.60 | 265205 | 273214
20 | 60:42.65 | 4:41.17 | 273215 | 294306
21 | 65:24.07 | 3:51.55 | 294307 | 311686
22 | 69:15.62 | 3:15.08 | 311687 | 326319
Range status and errors
Selected range
Filename D:\Rip\Handel.Water_Music,Suite_No.2;Music_for_the_Royal_Fireworks-Marriner,Linde,Malgoire(EMI-Sony)\Handel, Georg Friedrich - Tutti - CD 13.wav
Peak level 93.4 %
Extraction speed 4.4 X
Range quality 100.0 %
Test CRC EF18CE28
Copy CRC EF18CE28
Copy OK
No errors occurred
AccurateRip summary
Track 1 accurately ripped (confidence 1) [4E4274FA] (AR v2)
Track 2 accurately ripped (confidence 1) [0E998518] (AR v2)
Track 3 accurately ripped (confidence 1) [FC6E8F67] (AR v2)
Track 4 accurately ripped (confidence 1) [C925E26C] (AR v2)
Track 5 accurately ripped (confidence 1) [B487D5AF] (AR v2)
Track 6 accurately ripped (confidence 1) [7EA978D2] (AR v2)
Track 7 accurately ripped (confidence 2) [FA2C8853] (AR v1)
Track 8 accurately ripped (confidence 2) [9E8D8737] (AR v1)
Track 9 accurately ripped (confidence 2) [BD549408] (AR v1)
Track 10 accurately ripped (confidence 2) [86308880] (AR v1)
Track 11 accurately ripped (confidence 2) [C51F15DD] (AR v1)
Track 12 accurately ripped (confidence 1) [D66DC69D] (AR v2)
Track 13 accurately ripped (confidence 1) [A8298E73] (AR v2)
Track 14 accurately ripped (confidence 1) [7EB39001] (AR v2)
Track 15 accurately ripped (confidence 2) [F3D6950E] (AR v1)
Track 16 accurately ripped (confidence 2) [A8943DD8] (AR v1)
Track 17 accurately ripped (confidence 2) [6C033E14] (AR v1)
Track 18 accurately ripped (confidence 1) [D1033DB3] (AR v2)
Track 19 accurately ripped (confidence 1) [36B375F1] (AR v2)
Track 20 accurately ripped (confidence 1) [84889905] (AR v2)
Track 21 accurately ripped (confidence 1) [B947E22F] (AR v2)
Track 22 accurately ripped (confidence 1) [B5D7F903] (AR v2)
All tracks accurately ripped
End of status report
==== Log checksum D033BF06B8D266949EDCA93EE35D4666E6EC2DCC34883ADF1E81E339C8AD3C8C ====

Содержание индексной карты (.CUE)

REM GENRE Classical
REM DATE 1994
REM DISCID 5B10FE16
REM COMMENT "ExactAudioCopy v1.0b3"
PERFORMER "Handel, Georg Friedrich"
TITLE "Tutti - CD 13"
FILE "Handel, Georg Friedrich - Tutti - CD 13.flac" WAVE
TRACK 01 AUDIO
TITLE "Water Music, Suite No.2 in D major - I (Andante allegro)"
PERFORMER "Handel, Georg Friedrich"
INDEX 01 00:00:00
TRACK 02 AUDIO
TITLE "Water Music, Suite No.2 in D major - II Alla Hornpipe"
PERFORMER "Handel, Georg Friedrich"
INDEX 01 02:07:27
TRACK 03 AUDIO
TITLE "Water Music, Suite No.2 in D major - III Minuet"
PERFORMER "Handel, Georg Friedrich"
INDEX 01 06:11:67
TRACK 04 AUDIO
TITLE "Water Music, Suite No.2 in D major - IV Lentement"
PERFORMER "Handel, Georg Friedrich"
INDEX 01 07:58:30
TRACK 05 AUDIO
TITLE "Water Music, Suite No.2 in D major - V Bourree"
PERFORMER "Handel, Georg Friedrich"
INDEX 01 09:44:65
TRACK 06 AUDIO
TITLE "Let the Bright Seraphim"
PERFORMER "Handel, Georg Friedrich"
INDEX 00 10:53:25
INDEX 01 10:57:07
TRACK 07 AUDIO
TITLE "Concerto for Organ No.13 in F major - I Larghetto"
PERFORMER "Handel, Georg Friedrich"
INDEX 00 16:42:20
INDEX 01 16:45:55
TRACK 08 AUDIO
TITLE "Concerto for Organ No.13 in F major - II Allegro"
PERFORMER "Handel, Georg Friedrich"
INDEX 01 19:20:37
TRACK 09 AUDIO
TITLE "Concerto for Organ No.13 in F major - II Organo ad libitum"
PERFORMER "Handel, Georg Friedrich"
INDEX 01 23:11:47
TRACK 10 AUDIO
TITLE "Concerto for Organ No.13 in F major - III Larghetto"
PERFORMER "Handel, Georg Friedrich"
INDEX 01 25:55:35
TRACK 11 AUDIO
TITLE "Concerto for Organ No.13 in F major - IV Allegro"
PERFORMER "Handel, Georg Friedrich"
INDEX 01 29:31:37
TRACK 12 AUDIO
TITLE "E pur cosi in un giorno"
PERFORMER "Handel, Georg Friedrich"
INDEX 00 32:54:47
INDEX 01 32:58:37
TRACK 13 AUDIO
TITLE "Concerto grosso in G major, op.3 no.3 - I Largo e staccato"
PERFORMER "Handel, Georg Friedrich"
INDEX 00 39:24:00
INDEX 01 39:27:50
TRACK 14 AUDIO
TITLE "Concerto grosso in G major, op.3 no.3 - II Allegro"
PERFORMER "Handel, Georg Friedrich"
INDEX 01 39:52:40
TRACK 15 AUDIO
TITLE "Concerto grosso in G major, op.3 no.3 - III Adagio"
PERFORMER "Handel, Georg Friedrich"
INDEX 01 42:27:67
TRACK 16 AUDIO
TITLE "Concerto grosso in G major, op.3 no.3 - IV Allegro"
PERFORMER "Handel, Georg Friedrich"
INDEX 01 43:26:70
TRACK 17 AUDIO
TITLE "Hallelujah"
PERFORMER "Handel, Georg Friedrich"
INDEX 00 47:03:55
INDEX 01 47:08:65
TRACK 18 AUDIO
TITLE "Music for the Royal Fireworks - I Ouverture"
PERFORMER "Handel, Georg Friedrich"
INDEX 00 51:33:65
INDEX 01 51:36:40
TRACK 19 AUDIO
TITLE "Music for the Royal Fireworks - II Bourree"
PERFORMER "Handel, Georg Friedrich"
INDEX 01 58:56:05
TRACK 20 AUDIO
TITLE "Music for the Royal Fireworks - III La Pais. Largo alla Siciliana"
PERFORMER "Handel, Georg Friedrich"
INDEX 01 60:42:65
TRACK 21 AUDIO
TITLE "Music for the Royal Fireworks - IV La Rejouissance. Allegro"
PERFORMER "Handel, Georg Friedrich"
INDEX 01 65:24:07
TRACK 22 AUDIO
TITLE "Music for the Royal Fireworks - V Menuet I/II"
PERFORMER "Handel, Georg Friedrich"
INDEX 01 69:15:62
Доп. информация: Для тех, кто начинает знакомится с наследием Генделя.



Показать сообщения:    

Текущее время: 09-Дек 06:54

Часовой пояс: UTC + 3


Вы не можете начинать темы
Вы не можете отвечать на сообщения
Вы не можете редактировать свои сообщения
Вы не можете удалять свои сообщения
Вы не можете голосовать в опросах
Вы не можете прикреплять файлы к сообщениям
Вы не можете скачивать файлы