(Classical) Sigismondo d'India - Terzo Libro de Madrigali - La Venexiana, Claudio Cavina - 1998, FLAC (image+.cue) lossless


Статистика раздачи [Обновить пиров]
Размер:  259 MB   |    Зарегистрирован:  8 месяцев 22 дня   |    Скачан:  0 раз

Полного источника не было: Никогда

 
   
 
 
 

[Цитировать]

Sigismondo d'India - Terzo Libro de Madrigali - La Venexiana, Claudio Cavina
Жанр: Classical
Страна-производитель диска: Spain
Год издания диска: 1998
Издатель (лейбл): Glossa
Номер по каталогу: GCD920903
Дата записи: 1997
Аудиокодек: FLAC
Тип рипа: image+.cue
Битрейт аудио: lossless
Продолжительность: 57:23
Источник: собственный рип
Наличие сканов в содержимом раздачи: да
Треклист:
Sigismondo d'India (c.1582-c.1629)
Terzo Libro de Madrigali
[1] Dispietata pietate
[2] Mercé, grido piangendo
[3] Quell'augellin che canta
[4] Deh, chi mi fa languire
[5] Lasso, dicea Flieno
[6] Canzone di lontananza
[7] Chi vuol aver felice
[8] Dove, ah, dove ten vai
[9] Io mi son giovinetta
[10] Deh, s'io v'ho dato il core
[11] Dove, dove son io?
[12] O fugace, o superba
[13] Perché non mi mirate
[14] Ombrose e care selve
[15] Ardemmo insieme
[16] O rimembranza amara
[17] Donna, quanto più a dentro
[18] Dovrò dunque morire
[19] Non è di gentil core
[20] Indarno Febo
Исполнители:
La Venexiana
Claudio Cavina

Лог создания рипа

Exact Audio Copy V1.0 beta 3 from 29. August 2011
EAC extraction logfile from 9. November 2014, 0:23
La Venexiana, Claudio Cavina / Sigismondo d'India - Terzo Libro de Madrigali
Used drive : HL-DT-STDVDRAM GU70N Adapter: 0 ID: 0
Read mode : Secure
Utilize accurate stream : Yes
Defeat audio cache : Yes
Make use of C2 pointers : No
Read offset correction : 48
Overread into Lead-In and Lead-Out : No
Fill up missing offset samples with silence : Yes
Delete leading and trailing silent blocks : No
Null samples used in CRC calculations : Yes
Used interface : Native Win32 interface for Win NT & 2000
Used output format : User Defined Encoder
Selected bitrate : 128 kBit/s
Quality : High
Add ID3 tag : No
Command line compressor : C:\Program Files (x86)\Exact Audio Copy\Flac\flac.exe
Additional command line options : -V -8 -T "Date=%year%" -T "Genre=%genre%" %source%
TOC of the extracted CD
Track | Start | Length | Start sector | End sector
---------------------------------------------------------
1 | 0:00.00 | 2:56.03 | 0 | 13202
2 | 2:56.03 | 1:58.31 | 13203 | 22083
3 | 4:54.34 | 2:59.64 | 22084 | 35572
4 | 7:54.23 | 2:28.47 | 35573 | 46719
5 | 10:22.70 | 2:33.26 | 46720 | 58220
6 | 12:56.21 | 5:54.27 | 58221 | 84797
7 | 18:50.48 | 2:52.68 | 84798 | 97765
8 | 21:43.41 | 2:35.07 | 97766 | 109397
9 | 24:18.48 | 2:52.47 | 109398 | 122344
10 | 27:11.20 | 1:43.69 | 122345 | 130138
11 | 28:55.14 | 1:48.23 | 130139 | 138261
12 | 30:43.37 | 2:12.24 | 138262 | 148185
13 | 32:55.61 | 1:15.24 | 148186 | 153834
14 | 34:11.10 | 3:46.66 | 153835 | 170850
15 | 37:58.01 | 2:37.30 | 170851 | 182655
16 | 40:35.31 | 2:59.10 | 182656 | 196090
17 | 43:34.41 | 3:34.03 | 196091 | 212143
18 | 47:08.44 | 2:32.05 | 212144 | 223548
19 | 49:40.49 | 2:35.23 | 223549 | 235196
20 | 52:15.72 | 5:08.03 | 235197 | 258299
Range status and errors
Selected range
Filename C:\temp\Sigismondo d'India - Terzo Libro de Madrigali - La Venexiana\Sigismondo d'India - Terzo Libro de Madrigali.wav
Peak level 77.4 %
Extraction speed 5.1 X
Range quality 100.0 %
Test CRC F8A122C6
Copy CRC F8A122C6
Copy OK
No errors occurred
AccurateRip summary
Track 1 accurately ripped (confidence 3) [84D5CE63] (AR v2)
Track 2 accurately ripped (confidence 3) [4EC65612] (AR v2)
Track 3 accurately ripped (confidence 3) [5FA38A16] (AR v2)
Track 4 accurately ripped (confidence 3) [CD594A7C] (AR v2)
Track 5 accurately ripped (confidence 3) [BEDC7BD5] (AR v2)
Track 6 accurately ripped (confidence 3) [3CDC7531] (AR v2)
Track 7 accurately ripped (confidence 3) [A8DD6FDD] (AR v2)
Track 8 accurately ripped (confidence 3) [C64547F8] (AR v2)
Track 9 accurately ripped (confidence 3) [943F1596] (AR v2)
Track 10 accurately ripped (confidence 3) [6D514DAF] (AR v2)
Track 11 accurately ripped (confidence 3) [A8917E1E] (AR v2)
Track 12 accurately ripped (confidence 3) [8BC1A9B1] (AR v2)
Track 13 accurately ripped (confidence 3) [F331E469] (AR v2)
Track 14 accurately ripped (confidence 3) [407614AC] (AR v2)
Track 15 accurately ripped (confidence 3) [746FF866] (AR v2)
Track 16 accurately ripped (confidence 3) [EF6F45EB] (AR v2)
Track 17 accurately ripped (confidence 3) [D10E8158] (AR v2)
Track 18 accurately ripped (confidence 3) [CA2BBECE] (AR v2)
Track 19 accurately ripped (confidence 3) [46ABDA03] (AR v2)
Track 20 accurately ripped (confidence 3) [4CF8C6B2] (AR v2)
All tracks accurately ripped
End of status report
==== Log checksum A91E534F2A93BD2F0AC747FD017DA4EBC9FD5A3310643B79A66F2314DAD52C67 ====
[teatrix.ru].t20311.torrent 
Торрент: Зарегистрирован [ 2016-03-19 20:40 ] · 0A80415BEF093806F8AFE9D917BD2D25667346F3

Скачать .torrent

Скачать

24 KB

Статус: проверено
Скачан: 0 раз
Размер: 259 MB
terms.php



Быстрый ответ

Имя:

      
Для отправки сообщений необходимо включить JavaScript
Показать сообщения:    

Текущее время: 10-Дек 21:31

Часовой пояс: UTC + 3


Вы можете начинать темы
Вы можете отвечать на сообщения
Вы не можете редактировать свои сообщения
Вы не можете удалять свои сообщения
Вы не можете голосовать в опросах
Вы не можете прикреплять файлы к сообщениям
Вы можете скачивать файлы