Знакомое лицо / The Face is Familiar (Кевин Бёрнс / Kevin Burns) [2009, документальный, кинематограф, DVB] DVO (NOVAMEDIA)


Статистика раздачи [Обновить пиров]
Размер:  923 MB   |    Зарегистрирован:  8 месяцев 21 день   |    Скачан:  0 раз

Полного источника не было: Никогда

 
   
 
 
 

[Цитировать]

Знакомое лицо
The Face is Familiar- Дата/Год выпуска: 2009
Страна: США
Жанр: документальный, кинематограф
Продолжительность: 00:51:28
Перевод: Профессиональный (двухголосый закадровый)
Доп. инфо о переводе: Студия NOVAMEDIA по заказу компании Amedia TV
Русские субтитры: нет
Режиссер: Кевин Бёрнс / Kevin Burns
Телеканал: Amedia 1В ролях: Сэмюэл Л. Джексон, Дэнни Трехо, Вероника Картрайт, Луис Гусман, Шон Кинни, Джон Лэндис, Брайан Сингер, Стивен Тоболовски
Описание: Многие артисты годами играли второстепенные роли, чтобы в один прекрасный день стать знаменитостями.
Доп. информация: DVB-S

качество: DVB
формат: MKV
Видео: MPEG Video 2, 720x576@1024x576 (16:9), 25 fps, ~2264 kbps avg, 0.218 bit/pixel
Аудио: MPEG Audio 2, 2 ch, 48 kHz, ~192.00 kbps avg

MediaInfo

Общее
Уникальный идентификатор : 172561655990566377990816967412793743831 (0x81D22A826B2188BE8B97019DA4FC19D7)
Полное имя : E:\My Torrents 2\[apreder]The_Face_is_Familiar(2009)DVB.mkv
Формат : Matroska
Версия формата : Version 2
Размер файла : 923 Мбайт
Продолжительность : 51 м.
Режим общего битрейта : Переменный
Общий поток : 2505 Кбит/сек
Дата кодирования : UTC 2015-02-07 08:54:19
Программа кодирования : mkvmerge v7.5.0 ('Glass Culture') 64bit built on Jan 4 2015 16:48:44
Библиотека кодирования : libebml v1.3.1 + libmatroska v1.4.2
Видео
Идентификатор : 1
Формат : MPEG Video
Версия формата : Version 2
Профиль формата : Main@Main
Параметр BVOP формата : Да
Параметр матрицы формата : Выборочная
Параметр GOP формата : Variable
Format_Settings_PictureStructure : Frame
Идентификатор кодека : V_MPEG2
Идентификатор кодека/Информация : MPEG 1 or 2 Video
Продолжительность : 51 м.
Вид битрейта : Переменный
Битрейт : 2264 Кбит/сек
Ширина : 720 пикселей
Высота : 576 пикселей
Соотношение сторон : 16:9
Режим частоты кадров : Постоянный
Частота кадров : 25,000 кадров/сек
Стандарт вещания : PAL
Цветовое пространство : YUV
Субдискретизация насыщенности : 4:2:0
Битовая глубина : 8 бит
Тип развёртки : Чересстрочная
Порядок развёртки : Верхнее поле первое
Метод сжатия : С потерями
Бит/(Пиксели*Кадры) : 0.218
Временной код первого кадра : 00:00:00:00
Оригинал временного кода : Group of pictures header
Размер потока : 833 Мбайт (90%)
Default : Да
Forced : Нет
Аудио
Идентификатор : 2
Формат : MPEG Audio
Версия формата : Version 1
Профиль формата : Layer 2
Идентификатор кодека : A_MPEG/L2
Идентификатор кодека/Подсказка : MP2
Продолжительность : 51 м.
Вид битрейта : Постоянный
Битрейт : 192 Кбит/сек
Каналы : 2 канала
Частота : 48,0 КГц
Метод сжатия : С потерями
Размер потока : 70,7 Мбайт (8%)
Язык : Russian
Default : Да
Forced : Нет

Скриншоты

Резервные скриншоты

-[2'102]
[teatrix.ru].t20313.torrent 
Торрент: Зарегистрирован [ 2016-03-19 20:40 ] · CDFFCE60BFA0B33251AF28F3EC2E86F82F306C8E

Скачать .torrent

Скачать

18 KB

Статус: проверено
Скачан: 0 раз
Размер: 923 MB
terms.php



Показать сообщения:    

Текущее время: 10-Дек 19:36

Часовой пояс: UTC + 3


Вы не можете начинать темы
Вы не можете отвечать на сообщения
Вы не можете редактировать свои сообщения
Вы не можете удалять свои сообщения
Вы не можете голосовать в опросах
Вы не можете прикреплять файлы к сообщениям
Вы можете скачивать файлы