Загадка Блохера / L'experience Blocher (Жан-Стефан Брон / Jean-Stephane Bron) [2013, документальная драма, биографический, DVB] Original (Fre) + Sub (rus)


Статистика раздачи [Обновить пиров]
Размер:  2.06 GB   |    Зарегистрирован:  8 месяцев 14 дней   |    Скачан:  0 раз

Полного источника не было: Никогда

 
   
 
 
 

[Цитировать]

Загадка Блохера
L'expérience Blocher- Дата/Год выпуска: 2013
Страна: Франция, Швейцария
Жанр: документальная драма, биографический
Продолжительность: 01:39:34
Перевод: Субтитры
Русские субтитры: есть
Формат субтитров: hardsub (неотключаемые)
Доп. информация о субтитрах: перевод М.Лабори, Éclair Group
Оригинальная аудиодорожка: французский
Режиссер: Жан-Стефан Брон / Jean-Stéphane Bron
Телеканал: TV5MONDEОписание: В 2011 году повсюду в Европе силу набирал национал-популизм. В этом непонятном меняющемся мире Европе было страшно. В Швейцарии Народная партия сумела за годы завоевать симпатии трети избирателей. Во главе ее стоял Кристоф Блохер / Christoph Blocher.
Этот фильм не агитирует ни за, ни против Кристофа Блохера. Скорее он является попыткой запечатлеть фрагмент современной швейцарской истории при помощи тонкого анализа сложной личности такого неоднозначного политика, каким является Кристоф Блохер. Как сделать портрет человека, методы и убеждения которого ты, как минимум, не разделяешь? Человека, который раскалывает общественное мнение страны, как никто другой? Человека, которого одни называют "спасителем", а другие — "угрозой для демократии"? (Штефания Зуммерматтер, перевод Игоря Петрова)
Доп. информация: DVB-S. Во время нефранцузской речи на экране дополнительно вшитые французские субтитры.
Награды: номинация на приз зрительских симпатий Piazza Grande - Festival du Film de Locarno 2013; 3 номинации Swiss Film Prize 2014 (лучший документальный фильм, монтаж, музыка); номинация на приз Crystal Arrow - Les Arcs European Film Festival 2013; 2 номинации CPH:DOX 2013 (приз зрительских симпатий, Главный приз CPH:DOX).

качество: DVB
формат: MKV
Видео: MPEG Video 2, 704x576@1024x576 (16:9), 25 fps, ~2707 kbps avg, 0.267 bit/pixel
Аудио: Французский (MPEG Audio 2, 2 ch, 48 kHz, ~192.00 kbps avg)

MediaInfo

Общее
Уникальный идентификатор : 251122355975240908875264881107120759807 (0xBCEC6810E4CF3E96827AA7DEB3F123FF)
Полное имя : E:\My Torrents 2\[apreder]L'experience_Blocher(2013)DVB.mkv
Формат : Matroska
Версия формата : Version 2
Размер файла : 2,06 Гбайт
Продолжительность : 1 ч. 39 м.
Режим общего битрейта : Переменный
Общий поток : 2958 Кбит/сек
Дата кодирования : UTC 2015-02-07 12:55:13
Программа кодирования : mkvmerge v7.5.0 ('Glass Culture') 64bit built on Jan 4 2015 16:48:44
Библиотека кодирования : libebml v1.3.1 + libmatroska v1.4.2
Видео
Идентификатор : 1
Формат : MPEG Video
Версия формата : Version 2
Профиль формата : Main@Main
Параметр BVOP формата : Да
Параметр матрицы формата : Выборочная
Параметр GOP формата : M=3, N=15
Format_Settings_PictureStructure : Frame
Идентификатор кодека : V_MPEG2
Идентификатор кодека/Информация : MPEG 1 or 2 Video
Продолжительность : 1 ч. 39 м.
Вид битрейта : Переменный
Битрейт : 2707 Кбит/сек
Ширина : 704 пикселя
Высота : 576 пикселей
Соотношение сторон : 16:9
Режим частоты кадров : Постоянный
Частота кадров : 25,000 кадров/сек
Стандарт вещания : PAL
Цветовое пространство : YUV
Субдискретизация насыщенности : 4:2:0
Битовая глубина : 8 бит
Тип развёртки : Чересстрочная
Порядок развёртки : Верхнее поле первое
Метод сжатия : С потерями
Бит/(Пиксели*Кадры) : 0.267
Временной код первого кадра : 00:00:00:00
Оригинал временного кода : Group of pictures header
Размер потока : 1,88 Гбайт (92%)
Default : Да
Forced : Нет
Gop_OpenClosed_FirstFrame : Closed
Аудио
Идентификатор : 2
Формат : MPEG Audio
Версия формата : Version 1
Профиль формата : Layer 2
Идентификатор кодека : A_MPEG/L2
Идентификатор кодека/Подсказка : MP2
Продолжительность : 1 ч. 39 м.
Вид битрейта : Постоянный
Битрейт : 192 Кбит/сек
Каналы : 2 канала
Частота : 48,0 КГц
Метод сжатия : С потерями
Размер потока : 137 Мбайт (6%)
Язык : French
Default : Да
Forced : Нет

Скриншоты


Резервные скриншоты


-[2'103]
[teatrix.ru].t20315.torrent 
Торрент: Зарегистрирован [ 2016-03-19 20:40 ] · 00C2989FE25C5C6B9F0DB3F6A61912ADBCBCFE02

Скачать .torrent

Скачать

11 KB

Статус: проверено
Скачан: 0 раз
Размер: 2.06 GB
terms.php



Быстрый ответ

Имя:

      
Для отправки сообщений необходимо включить JavaScript
Показать сообщения:    

Текущее время: 02-Дек 21:13

Часовой пояс: UTC + 3


Вы можете начинать темы
Вы можете отвечать на сообщения
Вы не можете редактировать свои сообщения
Вы не можете удалять свои сообщения
Вы не можете голосовать в опросах
Вы не можете прикреплять файлы к сообщениям
Вы можете скачивать файлы