(Baroque / Sacred / Cantata) Pergolesi - Stabat Mater • Orfeo Cantata (Julia Faulkner, Anna Gonda - Camerata Budapest, Michael Halasz) - 1995, APE (image+.cue) lossless



Giovanni Battista Pergolesi (1710-1736) - Stabat Mater • Orfeo
Жанр: Baroque / Sacred / Cantata
Страна-производитель диска: Germany
Год издания диска: 1995
Издатель (лейбл): Naxos
Номер по каталогу: 8.550766
Дата записи: 1994
Аудиокодек: APE
Тип рипа: image+.cue
Битрейт аудио: lossless
Продолжительность: 52'23
Источник: собственный рип
Наличие сканов в содержимом раздачи: да
Stabat mater, for soprano, alto, strings & organ in F major
1. Stabat mater dolorosa
2. Cujus animam gementem
3. O quam tristis et afflicta
4. Quae moerebat et dolebat
5. Quis est homo
6. Vidi suum dulcem natum
7. Eja mater fons amoris
8. Fac, ut ardeat cor meum
9. Sancta mater, istud agas
10. Fac ut portem Christi mortem
11. Inflammatus et accensus
12. Quando corpus morietur
Orfeo ("Nel chiuso centro"), chamber cantata for soprano, strings & continuo, Op. 2/4
13. Recitativo. Nel chiuso centro
14. Aria. Euridice, e dove, e dove sei?
15. Recitativo. Si, che pietà non v'è
16. Aria. O, Euridice, n'andrò festoso
Giovanni Battista Pergolesi (1710-1736) - Stabat Mater • Orfeo
Julia Faulkner, soprano
Anna Gonda, alto
Camerata Budapest
Michael Halász

Лог создания рипа

Exact Audio Copy V1.0 beta 3 from 29. August 2011
EAC extraction logfile from 6. February 2015, 16:17
Pergolesi / Stabat Mater • Orfeo Cantata, Halász
Used drive : TSSTcorpCDDVDW SE-208AB Adapter: 1 ID: 0
Read mode : Secure
Utilize accurate stream : Yes
Defeat audio cache : Yes
Make use of C2 pointers : No
Read offset correction : 6
Overread into Lead-In and Lead-Out : No
Fill up missing offset samples with silence : Yes
Delete leading and trailing silent blocks : No
Null samples used in CRC calculations : Yes
Used interface : Native Win32 interface for Win NT & 2000
Used output format : Monkey's Audio Lossless Encoder
Selected bitrate : High Lossless Compression
Quality : High
Add ID3 tag : Yes
Command line compressor : C:\Program Files (x86)\Exact Audio Copy\MAC\MAC.exe
TOC of the extracted CD
Track | Start | Length | Start sector | End sector
1 | 0:00.00 | 3:28.25 | 0 | 15624
2 | 3:28.25 | 2:13.40 | 15625 | 25639
3 | 5:41.65 | 2:07.45 | 25640 | 35209
4 | 7:49.35 | 2:06.55 | 35210 | 44714
5 | 9:56.15 | 2:41.45 | 44715 | 56834
6 | 12:37.60 | 3:55.50 | 56835 | 74509
7 | 16:33.35 | 2:20.22 | 74510 | 85031
8 | 18:53.57 | 2:14.30 | 85032 | 95111
9 | 21:08.12 | 5:00.43 | 95112 | 117654
10 | 26:08.55 | 3:11.40 | 117655 | 132019
11 | 29:20.20 | 2:23.40 | 132020 | 142784
12 | 31:43.60 | 3:48.40 | 142785 | 159924
13 | 35:32.25 | 1:28.37 | 159925 | 166561
14 | 37:00.62 | 8:36.73 | 166562 | 205334
15 | 45:37.60 | 2:04.37 | 205335 | 214671
16 | 47:42.22 | 4:49.35 | 214672 | 236381
Range status and errors
Selected range
Filename D:\EAC\Pergolesi - Stabat Mater • Orfeo Cantata, Halász.wav
Peak level 97.7 %
Extraction speed 4.3 X
Range quality 100.0 %
Test CRC 346F904A
Copy CRC 346F904A
Copy OK
No errors occurred
AccurateRip summary
Track 1 accurately ripped (confidence 7) [0B03277D] (AR v2)
Track 2 accurately ripped (confidence 7) [1164F88D] (AR v2)
Track 3 accurately ripped (confidence 7) [31B4F46F] (AR v2)
Track 4 accurately ripped (confidence 7) [B7D10E8F] (AR v2)
Track 5 accurately ripped (confidence 7) [997DB5A1] (AR v2)
Track 6 accurately ripped (confidence 7) [52B7E6FE] (AR v2)
Track 7 accurately ripped (confidence 7) [C6F6887E] (AR v2)
Track 8 accurately ripped (confidence 7) [0FC5533D] (AR v2)
Track 9 accurately ripped (confidence 7) [6956BDC6] (AR v2)
Track 10 accurately ripped (confidence 6) [F77770A5] (AR v2)
Track 11 accurately ripped (confidence 7) [7A3F6C22] (AR v2)
Track 12 accurately ripped (confidence 7) [3F052AD1] (AR v2)
Track 13 accurately ripped (confidence 7) [8D9C30B6] (AR v2)
Track 14 accurately ripped (confidence 6) [DB5F759B] (AR v2)
Track 15 accurately ripped (confidence 7) [637B7E11] (AR v2)
Track 16 accurately ripped (confidence 7) [34072DF6] (AR v2)
All tracks accurately ripped
End of status report
---- CUETools DB Plugin V2.1.3
[CTDB TOCID: Exl2NW4.TEu.d2.WuTAeBLynI6I-] found, Submit result: Exl2NW4.TEu.d2.WuTAeBLynI6I- has been confirmed
[756a3b93] (4/8) Accurately ripped
[0ad90baf] (4/8) Differs in 3039 samples @52:31:43-52:31:46
You can use CUETools to repair this rip.
==== Log checksum EC8ACB33EBCDC766DD29D68E992EFC669958BF1777C7FCD12D3C7431E3D7FD3E ====

Содержание индексной карты (.CUE)

REM COMMENT "ExactAudioCopy v1.0b3"
CATALOG 0000000000000
PERFORMER "Pergolesi"
TITLE "Stabat Mater • Orfeo Cantata, Halász"
FILE "Pergolesi - Stabat Mater • Orfeo Cantata, Halász.ape" WAVE
TITLE "Stabat Mater - Stabat Mater dolorosa (a due)"
PERFORMER "Pergolesi"
INDEX 01 00:00:00
TITLE "Stabat Mater - Cujus aninam gementem (Canto solo)"
PERFORMER "Pergolesi"
INDEX 01 03:28:25
TITLE "Stabat Mater - O quam tristis et afflicta (a due)"
PERFORMER "Pergolesi"
INDEX 01 05:41:65
TITLE "Stabat Mater - Quae moerebat et dolebat (Alto solo)"
PERFORMER "Pergolesi"
INDEX 01 07:49:35
TITLE "Stabat Mater - Quis est homo (a due)"
PERFORMER "Pergolesi"
INDEX 01 09:56:15
TITLE "Stabat Mater - Vidit suum dulcem natum (Canta solo)"
PERFORMER "Pergolesi"
INDEX 01 12:37:60
TITLE "Stabat Mater - Eja mater fons amori (alto solo)"
PERFORMER "Pergolesi"
INDEX 01 16:33:35
TITLE "Stabat Mater - Fac, ut ardeat cor meum (a due)"
PERFORMER "Pergolesi"
INDEX 01 18:53:57
TITLE "Stabat Mater - Sancta mater, istud agas (a due)"
PERFORMER "Pergolesi"
INDEX 01 21:08:12
TITLE "Stabat Mater - Fac ut portem Christi mortem (alto solo)"
PERFORMER "Pergolesi"
INDEX 01 26:08:55
TITLE "Stabat Mater - Inflammatus et accensus (a due)"
PERFORMER "Pergolesi"
INDEX 01 29:20:20
TITLE "Stabat Mater - Quando corpus morietur (a due)"
PERFORMER "Pergolesi"
INDEX 01 31:43:60
TITLE "Cantata: Orfeo - Recitativo - Nel chiuso centro"
PERFORMER "Pergolesi"
INDEX 00 35:24:43
INDEX 01 35:32:25
TITLE "Cantata: Orfeo - Aria - Euridice, e dove, e dove sei?"
PERFORMER "Pergolesi"
INDEX 01 37:00:62
TITLE "Cantata: Orfeo - Recitativo - Si, che pieta non v'e"
PERFORMER "Pergolesi"
INDEX 01 45:37:60
TITLE "Cantata: Orfeo - Aria - O, Euridice, n'andro festoso"
PERFORMER "Pergolesi"
INDEX 01 47:42:22
Доп. информация:
Giovanni Battista Pergolesi, the family name by which he is generally known derived from his great-grandfather's place of origin, Pergola, was born at Iesi in 1710, the third child of a surveyor. Weak in health as a child, possibly with some deformity and a limp probably of tubercular origin, he seems to have had his first musical training in his native town. Aristocratic patronage enabled him to study in the early 1720s at the Conservatorio dei Poveri in Naples, where his composition teachers were Gaetano Greco, followed by Leonardo Vinci and Francesco Durante. At the conservatory he was a chorister and a violinist and apparently made his public début as a composer with a sacred drama, Li prodigi della divina grazia nella conversions di San Guglielmo Duca d'Aquitania, in 1731, performed at the monastery of S Agnello Maggiore. This marked the end of his period of study at the conservatory.
Pergolesi's first commissioned opera, Salustia, was staged without significant success at the S Bartolomeo Theatre in Naples in January 1732 and in the same year he became maestro di cappella to Prince Ferdinando Colonna Stigliano, an aide to the Viceroy of Naples. In September his comedy Lo frate 'nnamorato was successfully mounted at the Teatro dei Fiorentird, to be revived in following years. His greatest operatic success, however, came in 1733 with La serva padrona, an intermezzo for his opera seria Il prigonier superbo. La serva padrona was to enjoy enormous success, its second staging in Paris in 1752 being at the root of the Querelle des Bouffons, the contention that divided Parisian factions into partisans of the Italian or the French operatic school.
Meanwhile Pergolesi's position in the musical life of Naples seemed assured, with commissioned Mass and Vesper settings in honour of St Emedius, patron of the city and protector against earthquakes, and appointment, with right of succession, as deputy to the city maestro di cappella. Political disturbances, with the ousting of the Austrian viceroy and the re-establishment of the Kingdom of Naples under King Carlos of Bourbon, took Pergolesi briefly to Rome, where, in 1734, a Mass setting commissioned by a Neapolitan nobleman, the Duke of Maddaloni, created a sensation. Pergolesi returned to Naples as maestro di cappella to the Duke, whose family was closely associated with the King. His first opera after his return, however, was badly received. Rome, on the other hand, provided a further opportunity with a commission for the opera L'Olimpiade, staged at the Teatro Tordinona but apparently unsuccessful, although it was soon mounted elsewhere and continued in international repertoire.
By 1735 Pergolesi's health had deteriorated very considerably and the following year he took up residence in the Franciscan monastery at Pozzuoli to prepare, it seems, for his death. It was here, in the last months of his life, that he wrote his Stabat mater, for the fraternity of the Church of S Maria dei Sette Dolori in Naples, a church that is the site of the Maddaloni family tomb. His cantata da camera Orfeo also dates from this final period of his life. He died on 16th March 1736.
Pergolesi's early death and the wide fame accorded him posthumously has led to very considerable confusion in matters of attribution, as others seized the opportunity of using his name, so that any modem listing of his works must include a large category of compositions that are either doubtful or clearly spurious, some of these misattributions finding their way into Stravinsky's Pulcinella . There is, of course, no doubt about the origin of either the Stabat mater or Orfeo. The first, indeed, had exceptionally wide circulation, with publication in London in 1749 and adaptation by Johann Sebastian Bach, and remains the most often heard of all Pergolesi's compositions.
Pergolesi's Stabat mater, for soprano and alto, with string orchestra and basso continuo, was intended to replace the setting by Alessandro Scarlatti for the same resources and fraternity. It opens with a setting of the first stanza for the two voices, which enter after a brief and moving instrumental introduction, music that Mozart might have had in mind as he wrote his own Requiem half a century later. The second stanza is a more animated soprano solo, the instrumental and subsequent vocal trills suggesting the piercing sword of the text. O quam tristis et afflicts brings the soprano and alto together in a more reflective mood, to be followed by the fourth stanza, allotted to the alto and Handelian in its operatic vigour. The soprano introduces the fifth stanza, the question proposed countered by the following interrogative stanza from the alto, before the two voices blend, at first in sad reflection and then in animated conclusion. Vidit suum dulcem Natum is set for soprano, with an affecting instrumental introduction and hesitant pointing of the words dum emisit spiritum. The alto invokes the Mother of Christ, fons amoris, with deepest feeling. The two join together again in a vigorous fugal Fac ut ardeat cor meum, to which the setting of the twelfth stanza, Sancta Mater, istud agas, and the following verses, for the two voices, offer a gentler contrast, the soprano answered by the alto before both join together in Fac me vere tecum flere. The following alto solo has a dramatic instrumental introduction, echoed in the vocal line. The soprano and alto join in a duet of greater cheer, continued more reflectively in the sanguine expectation of salvation expressed in the final stanza, capped by an energetic Amen.
The chamber cantata Orfeo (see also ), for soprano, strings and basso continuo, consists of two accompanied recitatives and two arias. In the first the soloist tells the story of the loss of Euridice and Orfeo's mourning of her death. His lament forms the substance of the following aria, Euridice, e dove sei?, in da capo form, with a contrasting minor middle section, after which the questions of the opening lines are repeated. The second recitative reflects on the sadness of Orfeo at his loss and suggests that he may turn the tide of Fate. The last aria, again in da capo form, finds Orfeo in the Underworld, resolved either to return with Euridice to the Upper World or to remain by her side. The words Non ha terrore per me la morte have a particular poignancy as the composer himself neared the end of his short life.

Display posts:    

Current time is: 23-Oct 23:24

All times are UTC + 3

You cannot post new topics in this forum
You cannot reply to topics in this forum
You cannot edit your posts in this forum
You cannot delete your posts in this forum
You cannot vote in polls in this forum
You cannot attach files in this forum
You cannot download files in this forum