Создатели стрелкового оружия. Калашников, Шипунов, Грязев, Афанасьев, Барышев. (Андрей Никишин) [2014, Документальный, биография, DVDRip]


Статистика раздачи [Обновить пиров]
Размер:  1.1 GB   |    Зарегистрирован:  8 месяцев 19 дней   |    Скачан:  0 раз

Полного источника не было: Никогда

 
   
 
 
 

[Цитировать]

Создатели стрелкового оружия. Калашников, Шипунов, Грязев, Афанасьев, Барышев.
Дата/Год выпуска: 2014
Страна: Россия
Жанр: Документальный, биография
Продолжительность: 01:12:47
Перевод: Не требуется
Русские субтитры: нет
Режиссер: Андрей Никишин
Описание: Фильм снят по книге Елены Калашниковой.
"Этим фильмом мы хотели рассказать о выдающихся создателях стрелкового оружия.. Я надеюсь, что зрители поймут наш фильм и полюбят его героев. Очень хочется передать будущему поколению наше бесконечное уважение к послевоенной плеяде талантливых советских оружейников. Они не ушли в небытие со своими уникальными биографиями, разработками и той поразительной работоспособностью, без которой они не смогли бы добиться столь выдающихся успехов. Все они - яркие примеры того, как человек может сделать себя сам... " Елена Тимофеевна Калашникова.
качество: DVDRip
формат: AVI
Видео: 672x512 (1.31:1), 25 fps, XviD build 50 ~1971 kbps avg, 0.23 bit/pixel
Аудио: 48 kHz, AC3 Dolby Digital, 2/0 (L,R) ch, ~192 kbps

MediaInfo

Общее
Полное имя : H:\Видео\Документальные\Создатели стрелкового оружия.avi
Формат : AVI
Формат/Информация : Audio Video Interleave
Размер файла : 1,10 Гбайт
Продолжительность : 1 ч. 12 м.
Общий поток : 2173 Кбит/сек
Программа кодирования : VirtualDubMod 1.5.10.3 | www.virtualdub-fr.org || (build 2550/release)
Библиотека кодирования : VirtualDubMod build 2550/release
Видео
Идентификатор : 0
Формат : MPEG-4 Visual
Профиль формата : Advanced Simple@L5
Параметр BVOP формата : 1
Параметр QPel формата : Нет
Параметр GMC формата : Без точки перехода
Параметр матрицы формата : Default (MPEG)
Идентификатор кодека : DX50
Идентификатор кодека/Подсказка : DivX 5
Продолжительность : 1 ч. 12 м.
Битрейт : 1971 Кбит/сек
Ширина : 672 пикселя
Высота : 512 пикселей
Соотношение сторон : 4:3
Частота кадров : 25,000 кадров/сек
Цветовое пространство : YUV
Субдискретизация насыщенности : 4:2:0
Битовая глубина : 8 бит
Тип развёртки : Прогрессивная
Метод сжатия : С потерями
Бит/(Пиксели*Кадры) : 0.229
Размер потока : 1,00 Гбайт (91%)
Библиотека кодирования : XviD 1.2.1 (UTC 2008-12-04)
Аудио
Идентификатор : 1
Формат : AC-3
Формат/Информация : Audio Coding 3
Расширение режима : CM (complete main)
Параметр Endianness формата : Big
Идентификатор кодека : 2000
Продолжительность : 1 ч. 12 м.
Вид битрейта : Постоянный
Битрейт : 192 Кбит/сек
Каналы : 2 канала
Расположение каналов : Front: L R
Частота : 48,0 КГц
Битовая глубина : 16 бит
Метод сжатия : С потерями
Размер потока : 100,0 Мбайт (9%)
Выравнивание : Разделение по промежуткам
Продолжительность промежутка : 40 мс. (1,00 видеокадр)
Время предзагрузки промежутка : 500 мс.

Скриншоты

[teatrix.ru].t20317.torrent 
Торрент: Зарегистрирован [ 2016-03-19 20:40 ] · 2052D92CA30C780CE77AF664FC661C707B8AFCAA

Скачать .torrent

Скачать

12 KB

Статус: проверено
Скачан: 0 раз
Размер: 1.1 GB
terms.php



Быстрый ответ

Имя:

      
Для отправки сообщений необходимо включить JavaScript
Показать сообщения:    

Текущее время: 08-Дек 17:19

Часовой пояс: UTC + 3


Вы можете начинать темы
Вы можете отвечать на сообщения
Вы не можете редактировать свои сообщения
Вы не можете удалять свои сообщения
Вы не можете голосовать в опросах
Вы не можете прикреплять файлы к сообщениям
Вы можете скачивать файлы