(Classical) George Gershwin - Rhapsody in Blue; Piano Concerto; Second Rhapsody; Variations on ‘I Got Rhythm’ - Freddy Kempf, Bergen Philharmonic Orchestra, Andrew Litton - 2012, FLAC (image+.cue) lossless


Статистика раздачи [Обновить пиров]
Размер:  308 MB   |    Зарегистрирован:  8 месяцев 20 дней   |    Скачан:  1 раз

Полного источника не было: 6 месяцев 18 дней

 
   
 
 
 

[Цитировать]

George Gershwin - Rhapsody in Blue; Piano Concerto; Second Rhapsody; Variations on ‘I Got Rhythm’ - Freddy Kempf, Bergen Philharmonic Orchestra, Andrew Litton
Жанр: Classical
Страна-производитель диска: Sweden
Год издания диска: 2012
Издатель (лейбл): BIS
Номер по каталогу: BIS-SACD-1940
Дата записи: 2011
Аудиокодек: FLAC
Тип рипа: image+.cue
Битрейт аудио: lossless
Продолжительность: 73:56
Источник: собственный рип
Наличие сканов в содержимом раздачи: да
Треклист:
George Gershwin (1898–1937)
[1]-[3] Piano Concerto in F (1925)
[4] Rhapsody in Blue (1924)
(original jazz band version, orch. Ferde Grofé)
[5] Second Rhapsody for piano and orchestra (1931)
(in the original 1931 orchestration by the composer)
[6] Variations on ‘I Got Rhythm’ for piano and orchestra (1934)
Исполнители:
Freddy Kempf piano
Bergen Philharmonic Orchestra
Andrew Litton
conductor

Лог создания рипа

Exact Audio Copy V1.0 beta 3 from 29. August 2011
EAC extraction logfile from 2. February 2015, 21:23
Freddy Kempf, Bergen Philharmonic Orchestra, Andrew Litton / Gershwin - Rhapsody in Blue; Piano Concerto
Used drive : HL-DT-STDVDRAM GU70N Adapter: 0 ID: 0
Read mode : Secure
Utilize accurate stream : Yes
Defeat audio cache : Yes
Make use of C2 pointers : No
Read offset correction : 48
Overread into Lead-In and Lead-Out : No
Fill up missing offset samples with silence : Yes
Delete leading and trailing silent blocks : No
Null samples used in CRC calculations : Yes
Used interface : Native Win32 interface for Win NT & 2000
Used output format : User Defined Encoder
Selected bitrate : 128 kBit/s
Quality : High
Add ID3 tag : No
Command line compressor : C:\Program Files (x86)\Exact Audio Copy\Flac\flac.exe
Additional command line options : -V -8 -T "Date=%year%" -T "Genre=%genre%" %source%
TOC of the extracted CD
Track | Start | Length | Start sector | End sector
---------------------------------------------------------
1 | 0:00.00 | 13:41.07 | 0 | 61581
2 | 13:41.07 | 12:32.05 | 61582 | 117986
3 | 26:13.12 | 6:51.66 | 117987 | 148877
4 | 33:05.03 | 16:31.61 | 148878 | 223263
5 | 49:36.64 | 15:20.27 | 223264 | 292290
6 | 64:57.16 | 8:59.57 | 292291 | 332772
Range status and errors
Selected range
Filename C:\temp\BIS-SACD-1940 - Gershwin - Rhapsody in Blue; Piano Concerto\Gershwin - Rhapsody in Blue; Piano Concerto.wav
Peak level 99.0 %
Extraction speed 2.3 X
Range quality 100.0 %
Test CRC 09F9589F
Copy CRC 09F9589F
Copy OK
No errors occurred
AccurateRip summary
Track 1 accurately ripped (confidence 12) [4C26409B] (AR v2)
Track 2 accurately ripped (confidence 12) [A7EEB23B] (AR v2)
Track 3 accurately ripped (confidence 12) [35B1F354] (AR v2)
Track 4 accurately ripped (confidence 12) [5C9D214A] (AR v2)
Track 5 accurately ripped (confidence 12) [FA19B810] (AR v2)
Track 6 accurately ripped (confidence 12) [559D55EC] (AR v2)
All tracks accurately ripped
End of status report
==== Log checksum D443D0C9DDE7E50217DA17549707CD4C69A63B3BB8A4BCB468F20E013B7F086E ====
[teatrix.ru].t20319.torrent 
Торрент: Зарегистрирован [ 2016-03-19 20:40 ] · B0DC37DCA052000571DC84C8044EE9C82502C395

Скачать .torrent

Скачать

25 KB

Статус: проверено
Скачан: 1 раз
Размер: 308 MB
terms.php



Быстрый ответ

Имя:

      
Для отправки сообщений необходимо включить JavaScript
Показать сообщения:    

Текущее время: 09-Дек 18:33

Часовой пояс: UTC + 3


Вы можете начинать темы
Вы можете отвечать на сообщения
Вы не можете редактировать свои сообщения
Вы не можете удалять свои сообщения
Вы не можете голосовать в опросах
Вы не можете прикреплять файлы к сообщениям
Вы можете скачивать файлы