(Classical) Wolfgang A.Mozart (Моцарт): Requiem (Реквием) d-moll (KV 626), (Wilma Lipp, Hilde Rossel-Majdan, Anton Dermota, Walter Berry, Wiener Singvere, Wolfgang Meyer, Berliner Philharmoniker & Karajan) - 1990(1961), APE (tracks+.cue) lossless


Статистика раздачи [Обновить пиров]
Размер:  248 MB   |    Зарегистрирован:  8 месяцев 15 дней   |    Скачан:  0 раз

Полного источника не было: Никогда

 
   
 
 
 

[Цитировать]

Wolfgang Amadeus Mozart: Requiem d-moll (KV 626), Berliner Philharmoniker, Karajan
Жанр: Classical
Страна-производитель диска: West Germany
Год издания диска: 1990
Издатель (лейбл): DGG
Номер по каталогу: 429 1602
Дата записи: 1961
Аудиокодек: APE
Тип рипа: tracks+.cue
Битрейт аудио: lossless
Продолжительность: 56:13
Источник: собственный рип
Наличие сканов в содержимом раздачи: нет
Треклист:
I. Introitus
1. Requiem aetenam (Chor / Chorus / Choeur, Sopran) [6:01]
2. II. Kyrie eleison (Chor) [4:24]
III. Sequenz
3. No.1 Dies irae (Chor) [1:59]
4. No.2 Tuba mirum (Sopran, Alt, Tenor, Bass) [4:24]
5. No.3 Rex tremendae (Chor) [2:32]
6. No.4 Recordare (Sopran, Alt, Tenor, Bass) [5:29]
7. No.5 Confutatis (Chor) [2:39]
8. No.6 Lacrimosa (Chor) [3:29]
IV. Offertorium
9. No.1 Domine Jesu (Chor, Sopran, Alt, Tenor, Bass) [4:15]
10. No.2 Hostias (Chor) [5:11]
11. V. Sanctus (Chor) [1:47]
12. VI. Benedictus (Chor, Sopran, Alt, Tenor, Bass) [5:13]
13. VII. Agnus Dei (Chor) [3:56]
VIII. Communio
14. Lux aeterna (Chor, Sopran) [6:26]
Исполнители:
Wilma Lipp, Soprano
Hilde Rössel-Majdan, Alt/contralto
Anton Dermota, Tenor
Walter Berry, Bass
Wiener Singverein
(Einstudierung / Chorus master / Chefdes choeurs: Renhold Schmid)
Wolfgang Meyer, Orgel / organ / orgue

Berliner Philharmoniker
Herbert von Karajan

Лог создания рипа

Exact Audio Copy V1.0 beta 4 from 7. December 2014
Отчёт EAC об извлечении, выполненном 6. февраля 2015, 22:34
Wolfgang Amadeus Mozart / Requiem d-moll (KV 626)
Дисковод: Optiarc DVD RW AD-7200S Adapter: 1 ID: 0
Режим чтения : Достоверность
Использование точного потока : Да
Отключение кэша аудио : Да
Использование указателей C2 : Нет
Коррекция смещения при чтении : 48
Способность читать области Lead-in и Lead-out : Нет
Заполнение пропущенных сэмплов тишиной : Да
Удаление блоков с тишиной в начале и конце : Нет
При вычислениях CRC использовались нулевые сэмплы : Да
Интерфейс : Встроенный Win32-интерфейс для Win NT/2000
Обработка зазоров : Добавлено к предыдущему треку
Выходной формат : Пользовательский кодировщик
Выбранный битрейт : 1024 kBit/s
Качество : Высокий
Добавление ID3-тега : Нет
Утилита сжатия : C:\program files\Monkey's Audio\wapet.exe
Дополнительные параметры : %dest% -t "Genre=%genre%" -t "Artist=%artist%" -t "Title=%title%" -t "Album=%albumtitle%" -t "Year=%year%" -t "Track=%tracknr%" -t "Comment=%comment%" mac.exe %source% %dest% -c4000
TOC извлечённого CD
Трек | Старт | Длительность | Начальный сектор | Конечный сектор
---------------------------------------------------------------------
1 | 0:00.33 | 6:00.37 | 33 | 27069
2 | 6:00.70 | 2:50.38 | 27070 | 39857
3 | 8:51.33 | 1:59.25 | 39858 | 48807
4 | 10:50.58 | 4:23.37 | 48808 | 68569
5 | 15:14.20 | 2:32.00 | 68570 | 79969
6 | 17:46.20 | 5:29.13 | 79970 | 104657
7 | 23:15.33 | 2:39.32 | 104658 | 116614
8 | 25:54.65 | 3:27.55 | 116615 | 132194
9 | 29:22.45 | 4:15.38 | 132195 | 151357
10 | 33:38.08 | 5:10.50 | 151358 | 174657
11 | 38:48.58 | 1:49.37 | 174658 | 182869
12 | 40:38.20 | 5:12.50 | 182870 | 206319
13 | 45:50.70 | 3:55.68 | 206320 | 224012
14 | 49:46.63 | 6:25.45 | 224013 | 252932
Трек 1
Имя файла D:\Wolfgang Amadeus Mozart\(1962) Requiem d-moll (KV 626)\Wolfgang Amadeus Mozart - Requiem d-moll (KV 626) - 01. I. Introitus - Requiem.wav
Длина предзазора 0:00:02.33
Пиковый уровень 91.1 %
Скорость извлечения 2.4 X
Качество трека 100.0 %
CRC теста A38629B5
CRC копии A38629B5
Точное извлечение (достоверность 4) [F1B5B5AF] (AR v2)
Копирование... OK
Трек 2
Имя файла D:\Wolfgang Amadeus Mozart\(1962) Requiem d-moll (KV 626)\Wolfgang Amadeus Mozart - Requiem d-moll (KV 626) - 02. II. Kyrie.wav
Пиковый уровень 88.2 %
Скорость извлечения 2.5 X
Качество трека 100.0 %
CRC теста D19DBDEA
CRC копии D19DBDEA
Точное извлечение (достоверность 5) [8B9B4CE6] (AR v2)
Копирование... OK
Трек 3
Имя файла D:\Wolfgang Amadeus Mozart\(1962) Requiem d-moll (KV 626)\Wolfgang Amadeus Mozart - Requiem d-moll (KV 626) - 03. III. Sequenz - No. 1 Dies Irae.wav
Пиковый уровень 89.7 %
Скорость извлечения 2.4 X
Качество трека 100.0 %
CRC теста 72668299
CRC копии 72668299
Точное извлечение (достоверность 5) [D137C717] (AR v2)
Копирование... OK
Трек 4
Имя файла D:\Wolfgang Amadeus Mozart\(1962) Requiem d-moll (KV 626)\Wolfgang Amadeus Mozart - Requiem d-moll (KV 626) - 04. III. Sequenz - No. 2 Tuba Mirum.wav
Пиковый уровень 36.7 %
Скорость извлечения 2.9 X
Качество трека 100.0 %
CRC теста 4ECA3523
CRC копии 4ECA3523
Точное извлечение (достоверность 5) [07BCEF0B] (AR v2)
Копирование... OK
Трек 5
Имя файла D:\Wolfgang Amadeus Mozart\(1962) Requiem d-moll (KV 626)\Wolfgang Amadeus Mozart - Requiem d-moll (KV 626) - 05. III. Sequenz - No. 3 Rex Tremendae.wav
Пиковый уровень 92.6 %
Скорость извлечения 2.8 X
Качество трека 100.0 %
CRC теста 2649D0AB
CRC копии 2649D0AB
Точное извлечение (достоверность 5) [E4181EAD] (AR v2)
Копирование... OK
Трек 6
Имя файла D:\Wolfgang Amadeus Mozart\(1962) Requiem d-moll (KV 626)\Wolfgang Amadeus Mozart - Requiem d-moll (KV 626) - 06. III. Sequenz - No. 4 Recordare.wav
Пиковый уровень 33.7 %
Скорость извлечения 3.4 X
Качество трека 100.0 %
CRC теста 44E8C9DC
CRC копии 44E8C9DC
Точное извлечение (достоверность 5) [7A8C6919] (AR v2)
Копирование... OK
Трек 7
Имя файла D:\Wolfgang Amadeus Mozart\(1962) Requiem d-moll (KV 626)\Wolfgang Amadeus Mozart - Requiem d-moll (KV 626) - 07. III. Sequenz - No. 5 Confutatis.wav
Пиковый уровень 72.0 %
Скорость извлечения 3.3 X
Качество трека 100.0 %
CRC теста FA0956C4
CRC копии FA0956C4
Точное извлечение (достоверность 5) [F2057D5D] (AR v2)
Копирование... OK
Трек 8
Имя файла D:\Wolfgang Amadeus Mozart\(1962) Requiem d-moll (KV 626)\Wolfgang Amadeus Mozart - Requiem d-moll (KV 626) - 08. III. Sequenz - No. 6 Lacrimosa.wav
Пиковый уровень 90.6 %
Скорость извлечения 3.5 X
Качество трека 100.0 %
CRC теста 3B4EB086
CRC копии 3B4EB086
Точное извлечение (достоверность 5) [D8DE9954] (AR v2)
Копирование... OK
Трек 9
Имя файла D:\Wolfgang Amadeus Mozart\(1962) Requiem d-moll (KV 626)\Wolfgang Amadeus Mozart - Requiem d-moll (KV 626) - 09. IV. Offertorium - No. 1 Domine Jesu.wav
Пиковый уровень 94.7 %
Скорость извлечения 3.8 X
Качество трека 100.0 %
CRC теста 3F0594A3
CRC копии 3F0594A3
Точное извлечение (достоверность 5) [956E8E44] (AR v2)
Копирование... OK
Трек 10
Имя файла D:\Wolfgang Amadeus Mozart\(1962) Requiem d-moll (KV 626)\Wolfgang Amadeus Mozart - Requiem d-moll (KV 626) - 10. IV. Offertorium - No. 2 Hostias.wav
Пиковый уровень 80.6 %
Скорость извлечения 4.0 X
Качество трека 100.0 %
CRC теста 93761F14
CRC копии 93761F14
Точное извлечение (достоверность 5) [DB407E91] (AR v2)
Копирование... OK
Трек 11
Имя файла D:\Wolfgang Amadeus Mozart\(1962) Requiem d-moll (KV 626)\Wolfgang Amadeus Mozart - Requiem d-moll (KV 626) - 11. V. Sanctus.wav
Пиковый уровень 98.2 %
Скорость извлечения 3.4 X
Качество трека 100.0 %
CRC теста C4BBD7FB
CRC копии C4BBD7FB
Точное извлечение (достоверность 5) [206B37BE] (AR v2)
Копирование... OK
Трек 12
Имя файла D:\Wolfgang Amadeus Mozart\(1962) Requiem d-moll (KV 626)\Wolfgang Amadeus Mozart - Requiem d-moll (KV 626) - 12. VI. Benedictus.wav
Длина предзазора 0:00:01.12
Пиковый уровень 66.7 %
Скорость извлечения 4.3 X
Качество трека 100.0 %
CRC теста BDC4F478
CRC копии BDC4F478
Точное извлечение (достоверность 5) [6C15D880] (AR v2)
Копирование... OK
Трек 13
Имя файла D:\Wolfgang Amadeus Mozart\(1962) Requiem d-moll (KV 626)\Wolfgang Amadeus Mozart - Requiem d-moll (KV 626) - 13. VII. Agnus Dei.wav
Пиковый уровень 85.3 %
Скорость извлечения 4.3 X
Качество трека 100.0 %
CRC теста FD970A15
CRC копии FD970A15
Точное извлечение (достоверность 5) [FC2ACA73] (AR v2)
Копирование... OK
Трек 14
Имя файла D:\Wolfgang Amadeus Mozart\(1962) Requiem d-moll (KV 626)\Wolfgang Amadeus Mozart - Requiem d-moll (KV 626) - 14. VIII. Communio - Lux aeterna.wav
Пиковый уровень 90.2 %
Скорость извлечения 4.8 X
Качество трека 100.0 %
CRC теста D9E1125D
CRC копии D9E1125D
Точное извлечение (достоверность 5) [305DEE7E] (AR v2)
Копирование... OK
Все треки извлечены точно
Ошибок не произошло
Конец отчёта
==== Контрольная сумма отчёта 65B2709A3F93B4FC315B8A5185EEF9B48A71133414DBDBE2B31793E42CC4425B ====

Содержание индексной карты (.CUE)

REM GENRE Classical
REM DATE 1962
REM DISCID BC0D2C0E
REM COMMENT "ExactAudioCopy v1.0b4"
CATALOG 028942916029
PERFORMER "Wolfgang Amadeus Mozart"
TITLE "Requiem d-moll (KV 626)"
FILE "Wolfgang Amadeus Mozart - Requiem d-moll (KV 626) - 01. I. Introitus - Requiem.wav" WAVE
TRACK 01 AUDIO
TITLE "I. Introitus: Requiem"
PERFORMER "Wolfgang Amadeus Mozart"
PREGAP 00:00:33
INDEX 01 00:00:00
FILE "Wolfgang Amadeus Mozart - Requiem d-moll (KV 626) - 02. II. Kyrie.wav" WAVE
TRACK 02 AUDIO
TITLE "II. Kyrie"
PERFORMER "Wolfgang Amadeus Mozart"
INDEX 01 00:00:00
FILE "Wolfgang Amadeus Mozart - Requiem d-moll (KV 626) - 03. III. Sequenz - No. 1 Dies Irae.wav" WAVE
TRACK 03 AUDIO
TITLE "III. Sequenz: No. 1 Dies Irae"
PERFORMER "Wolfgang Amadeus Mozart"
INDEX 01 00:00:00
FILE "Wolfgang Amadeus Mozart - Requiem d-moll (KV 626) - 04. III. Sequenz - No. 2 Tuba Mirum.wav" WAVE
TRACK 04 AUDIO
TITLE "III. Sequenz: No. 2 Tuba Mirum"
PERFORMER "Wolfgang Amadeus Mozart"
INDEX 01 00:00:00
FILE "Wolfgang Amadeus Mozart - Requiem d-moll (KV 626) - 05. III. Sequenz - No. 3 Rex Tremendae.wav" WAVE
TRACK 05 AUDIO
TITLE "III. Sequenz: No. 3 Rex Tremendae"
PERFORMER "Wolfgang Amadeus Mozart"
INDEX 01 00:00:00
FILE "Wolfgang Amadeus Mozart - Requiem d-moll (KV 626) - 06. III. Sequenz - No. 4 Recordare.wav" WAVE
TRACK 06 AUDIO
TITLE "III. Sequenz: No. 4 Recordare"
PERFORMER "Wolfgang Amadeus Mozart"
INDEX 01 00:00:00
FILE "Wolfgang Amadeus Mozart - Requiem d-moll (KV 626) - 07. III. Sequenz - No. 5 Confutatis.wav" WAVE
TRACK 07 AUDIO
TITLE "III. Sequenz: No. 5 Confutatis"
PERFORMER "Wolfgang Amadeus Mozart"
INDEX 01 00:00:00
FILE "Wolfgang Amadeus Mozart - Requiem d-moll (KV 626) - 08. III. Sequenz - No. 6 Lacrimosa.wav" WAVE
TRACK 08 AUDIO
TITLE "III. Sequenz: No. 6 Lacrimosa"
PERFORMER "Wolfgang Amadeus Mozart"
INDEX 01 00:00:00
FILE "Wolfgang Amadeus Mozart - Requiem d-moll (KV 626) - 09. IV. Offertorium - No. 1 Domine Jesu.wav" WAVE
TRACK 09 AUDIO
TITLE "IV. Offertorium: No. 1 Domine Jesu"
PERFORMER "Wolfgang Amadeus Mozart"
INDEX 01 00:00:00
FILE "Wolfgang Amadeus Mozart - Requiem d-moll (KV 626) - 10. IV. Offertorium - No. 2 Hostias.wav" WAVE
TRACK 10 AUDIO
TITLE "IV. Offertorium: No. 2 Hostias"
PERFORMER "Wolfgang Amadeus Mozart"
INDEX 01 00:00:00
FILE "Wolfgang Amadeus Mozart - Requiem d-moll (KV 626) - 11. V. Sanctus.wav" WAVE
TRACK 11 AUDIO
TITLE "V. Sanctus"
PERFORMER "Wolfgang Amadeus Mozart"
INDEX 01 00:00:00
TRACK 12 AUDIO
TITLE "VI. Benedictus"
PERFORMER "Wolfgang Amadeus Mozart"
INDEX 00 01:48:25
FILE "Wolfgang Amadeus Mozart - Requiem d-moll (KV 626) - 12. VI. Benedictus.wav" WAVE
INDEX 01 00:00:00
FILE "Wolfgang Amadeus Mozart - Requiem d-moll (KV 626) - 13. VII. Agnus Dei.wav" WAVE
TRACK 13 AUDIO
TITLE "VII. Agnus Dei"
PERFORMER "Wolfgang Amadeus Mozart"
INDEX 01 00:00:00
FILE "Wolfgang Amadeus Mozart - Requiem d-moll (KV 626) - 14. VIII. Communio - Lux aeterna.wav" WAVE
TRACK 14 AUDIO
TITLE "VIII. Communio: Lux aeterna"
PERFORMER "Wolfgang Amadeus Mozart"
INDEX 01 00:00:00
[teatrix.ru].t20321.torrent 
Торрент: Зарегистрирован [ 2016-03-19 20:40 ] · 3BA36A9019BD33C942CA3D0E9F9178A22E29F3F9

Скачать .torrent

Скачать

22 KB

Статус: проверено
Скачан: 0 раз
Размер: 248 MB
terms.php



Быстрый ответ

Имя:

      
Для отправки сообщений необходимо включить JavaScript
Показать сообщения:    

Текущее время: 04-Дек 11:15

Часовой пояс: UTC + 3


Вы можете начинать темы
Вы можете отвечать на сообщения
Вы не можете редактировать свои сообщения
Вы не можете удалять свои сообщения
Вы не можете голосовать в опросах
Вы не можете прикреплять файлы к сообщениям
Вы можете скачивать файлы