[TR24][OF] Renée (Renee) Fleming - Christmas In New York - 2014 (Vocal Jazz, Holiday)

DL-List and Torrent activity [Update пиров]
Size:  1.22 GB   |    Registered:  7 months 2 days   |    Completed:  0 times

Seeder not seen: Never



Renée Fleming
Christmas In New York
- Год издания: 2014
Жанр: Vocal Jazz, Holiday
Издатель (лейбл): Decca Records
Продолжительность: 01:03:37
Наличие сканов: Sleeve, Digital Booklet
- -
01. Winter Wonderland (with Wynton Marsalis) (3:50)
02. Have Yourself A Merry Little Christmas (with Gregory Porter) (3:35)
03. Silver Bells (with Kelli O'Hara) (3:07)
04. Merry Christmas, Darling (with Chris Botti) (5:36)
05. The Christmas Waltz (3:19)
06. Who Knows Where The Time Goes (with Brad Mehldau) (4:26)
07. Sleigh Ridev (with Wynton Marsalis) (5:17)
08. Snowbound (with Kurt Elling) (6:28)
09. In The Bleak Midwinter (with Rufus Wainwright) (3:46)
10. Central Park Serenade (with Gregory Porter) (4:12)
11. The Man With The Bag (2:40)
12. Love And Hard Times (with Brad Mehldau) (4:46)
13. Still, Still, Still (with Kurt Elling) (5:16)
14. New York Tendaberry (with Yo-Yo Ma) (7:19)

Контейнер: FLAC (*.flac)
Тип рипа: tracks
Разрядность: 24bit / 96kHz
Количество каналов: 2.0
-О релизе
American soprano Renee Fleming’s first-ever holiday album celebrates the beloved and iconic Christmas season in New York City. From Rockefeller Center to the holiday windows lining 5th Avenue, the essence of the city at the most wonderful time of year is captured on Christmas in New York.
With guests representing such genres as jazz, pop and classical, this album will appeal not only to Fleming’s core classical fan base but also to a broader, music savvy consumer.
Joining Fleming for the Christmas celebration are guest artists ranging from Rufus Wainwright and Gregory Porter to Wynton Marsalis and Kurt Elling.
Fleming’s elegant persona along with the intimate arrangements of holiday classics makes this album perfect for holiday parties, stocking stuffers and as a treasured holiday gift. This sophisticated album is sure to be a perennial favourite.
Renée Fleming - Soprano
Wynton Marsalis (#1, 7)
Gregory Porter (#2, 10)
Kelli O'Hara (#3)
Chris Botti (#4)
Brad Mehldau (#6, 12)
Kurt Elling (#8, 13)
Rufus Wainwright (#9)
Yo-Yo Ma (#14)
Peter Donovan - Bass (Acoustic)
Anthony Scherr - Bass (Acoustic)
David Finck - Bass
Carlos Henríquez - Bass
Christian McBride - Bass
Stephanie Cummins - Cello
Mairi Dorman Phaneuf - Cello
Carl Allen - Drums
Clint DeGanon - Drums
Ulysses Owens Jr. - Drums
Dave Ratajczak - Drums
Chris Botti - Flugelhorn
Lou Marini - Flute (Alto)
Peter Bernstein - Guitar
Freddie Bryant - Guitar
Saul Rubin - Guitar
Grace Paradise - Harp
Dan Nimmer - Piano
Walter Blanding - Sax (Tenor)
Grant Stewart - Saxophone
Mike Truesdell - Vibraphone
David Blinn - Viola
David Creswell - Viola
Joyce Hammann - Violin
Lisa Matricardi - Violin
Susan Perelman - Violin
Svetlana Tsoneva - Violin
Rob Moose - Arranger, Concert Master, Guitar, String Arrangements, Violin
Rob Mounsey - Arranger, Keyboards, Programming
Lee Musiker - Arranger, Piano, Synthesizer
Shelly Berg - Arranger, Piano
Brad Mehldau - Arranger, Piano
Wynton Marsalis - Arranger, Trumpet
David Lai - Conductor, Executive Producer, Management, Synthesizer

ОтчётыДинамический диапазон

foobar2000 1.2.2 / Dynamic Range Meter 1.1.1
log date: 2015-02-08 11:38:07
Analyzed: Renée Fleming / Christmas In New York
DR Peak RMS Duration Track
DR11 -0.28 dB -14.67 dB 3:50 ?-Winter Wonderland (with Wynton Marsalis)
DR10 -0.15 dB -13.17 dB 3:35 ?-Have Yourself A Merry Little Christmas (with Gregory Porter)
DR11 -0.42 dB -14.89 dB 3:07 ?-Silver Bells (with Kelli O'Hara)
DR12 -0.31 dB -15.50 dB 5:36 ?-Merry Christmas, Darling (with Chris Botti)
DR12 -0.41 dB -15.03 dB 3:19 ?-The Christmas Waltz
DR12 -0.42 dB -16.94 dB 4:26 ?-Who Knows Where The Time Goes (with Brad Mehldau)
DR12 -0.03 dB -14.22 dB 5:17 ?-Sleigh Ridev (with Wynton Marsalis)
DR12 -0.42 dB -14.92 dB 6:28 ?-Snowbound (with Kurt Elling)
DR12 -0.52 dB -16.69 dB 3:46 ?-In The Bleak Midwinter (with Rufus Wainwright)
DR12 -0.29 dB -15.50 dB 4:12 ?-Central Park Serenade (with Gregory Porter)
DR12 -0.28 dB -15.79 dB 2:40 ?-The Man With The Bag
DR14 -0.40 dB -19.11 dB 4:46 ?-Love And Hard Times (with Brad Mehldau)
DR12 -1.06 dB -17.55 dB 5:16 ?-Still, Still, Still (with Kurt Elling)
DR12 -0.48 dB -16.97 dB 7:19 ?-New York Tendaberry (with Yo-Yo Ma)
Number of tracks: 14
Official DR value: DR12
Samplerate: 96000 Hz
Channels: 2
Bits per sample: 24
Bitrate: 2706 kbps
Codec: FLAC

Скриншот спектра частот

Доп. информация

При скачивании, если необходимо, переименуйте папку, в которой будет находиться альбомБольшая просьба к скачавшим поддерживать раздачу! Помогайте другим, ведь вам тоже может понадобиться помощь!Не забываем говорить "Спасибо"!Комментарии приветствуются!
Torrent: Registered [ 2016-03-19 20:40 ] · 66024C4D55FD153915010C0578F0275941DD6340

Download .torrent


14 KB

Status: checked
Completed: 0 times
Size: 1.22 GB

Quick Reply


Heads necessary to send messages to enable JavaScript
Display posts:    

Current time is: 21-Oct 21:27

All times are UTC + 3

You can post new topics in this forum
You can reply to topics in this forum
You cannot edit your posts in this forum
You cannot delete your posts in this forum
You cannot vote in polls in this forum
You cannot attach files in this forum
You can download files in this forum