Турбулентность: Луи де Фюнес / Am laufenden Band: Louis de Funes (Экхард Бёмер / Ekkehard Bohmer) [07.04.1979, документальный, кинематограф, TVRip] Original (Ger) + Sub (Rus)


Статистика раздачи [Обновить пиров]
Размер:  85 MB   |    Зарегистрирован:  8 месяцев 14 дней   |    Скачан:  0 раз

Полного источника не было: Никогда

 
   
 
 
 

[Цитировать]

Турбулентность: Луи де Фюнес
Am laufenden Band: Louis de Funès- Дата/Год выпуска: 07.04.1979
Страна: ФРГ
Жанр: документальный, кинематограф
Продолжительность: 00:07:07
Перевод: Субтитры
Русские субтитры: естьФормат субтитров: softsub (SRT)
Доп. информация о субтитрах: перевод М_Васильев , инициатор Aleks Punk
Оригинальная аудиодорожка: немецкий
Режиссер: Экхард Бёмер / Ekkehard Böhmer
Телеканал: WDR
Описание: Редкая запись фрагмента 46-го выпуска германского игрового телевизионного шоу "Турбулентность" с участием французского комика Луи де Фюнеса, разыгрывающего небольшой скетч "10 вопросов".
Шоу выходило в 1974-1979 годах. Гостями его были Клаус Кински, Райнер Вернер Фассбиндер, Твигги, Марсель Марсо, Пьер Ришар, Роджер Мур, Гарри Белафонте, Изабель Аджани, Жак Дютрон, Ансамбль песни и пляски Советской армии имени А. В. Александрова и многие другие. Бессменный ведущий шоу Руди Каррелл / Rudi Carrell, трижды получавший приз Bambi Awards (1975, 1979, 1980) как лучший телеведущий.
Доп. информация: За предоставленный материал благодарность Aleks Punk.

качество: TVRip
формат: MKV
Видео: AVC (H.264), 640x480 (4:3), 25 fps, ~1500 kbps avg, 0.195 bit/pixel
Аудио: AC3, 2 ch, 48 kHz, ~192.00 kbps avg

Пример субтитров

1
00:00:02,121 --> 00:00:07,000
С нами сегодня один
из величайших комиков в Европе.
2
00:00:07,101 --> 00:00:09,001
Луи де Фюнес.
3
00:00:30,000 --> 00:00:33,000
Вы говорите по-немецки?
4
00:00:37,000 --> 00:00:39,000
Да.
5
00:00:41,000 --> 00:00:44,000
Если не ошибаюсь,
вы уже 30 лет в кино...
6
00:00:46,000 --> 00:00:48,000
Да.
7
00:00:49,000 --> 00:00:52,000
Ваш последний фильм
был снят в Сан Тропе. Это милый городок?
8
00:00:52,101 --> 00:00:53,001
Да.
9
00:00:58,000 --> 00:01:01,000
Какое ваше любимое блюдо?
10
00:01:01,101 --> 00:01:04,001
Да.
11
00:01:06,000 --> 00:01:08,000
Как вам немецкие женщины?
12
00:01:08,101 --> 00:01:09,001
Да.
13
00:01:10,000 --> 00:01:12,000
А наше передача как вам?
14
00:01:12,105 --> 00:01:14,005
Да.
15
00:01:16,000 --> 00:01:18,000
Если не нравится,
верните деньги.
16
00:01:19,000 --> 00:01:21,000
Нет.
17
00:01:28,000 --> 00:01:31,000
Новый фильм Луи - комедия
"Жандарм и инопланетяне".
18
00:01:31,101 --> 00:01:34,001
В этом фильме он сталкивается
с пришельцами, которые выглядят как люди,
19
00:01:34,102 --> 00:01:38,002
а внутри они из металла. Чтобы узнать, кто
пришелец, надо по нему постучать.
20
00:01:38,103 --> 00:01:42,003
И главный герой не знает, кто из
его коллег человек, а кто пришелец.

MediaInfo

Общее
Уникальный идентификатор : 194215613877323740394843882383303164283 (0x921C910F8A86F430B56D24EFCA66C17B)
Полное имя : E:\My Torrents 2\[apreder]Am_laufenden_Band_Louis_de_Funes(07.04.1979)TVRip.mkv
Формат : Matroska
Версия формата : Version 2
Размер файла : 84,6 Мбайт
Продолжительность : 7 м. 7 с.
Общий поток : 1661 Кбит/сек
Дата кодирования : UTC 2015-02-08 13:03:08
Программа кодирования : mkvmerge v7.5.0 ('Glass Culture') 64bit built on Jan 4 2015 16:48:44
Библиотека кодирования : libebml v1.3.1 + libmatroska v1.4.2
Видео
Идентификатор : 1
Формат : AVC
Формат/Информация : Advanced Video Codec
Профиль формата : High@L4.1
Параметр CABAC формата : Да
Параметр ReFrames формата : 16 кадров
Идентификатор кодека : V_MPEG4/ISO/AVC
Продолжительность : 7 м. 7 с.
Битрейт : 1500 Кбит/сек
Ширина : 640 пикселей
Высота : 480 пикселей
Соотношение сторон : 4:3
Режим частоты кадров : Постоянный
Частота кадров : 25,000 кадров/сек
Цветовое пространство : YUV
Субдискретизация насыщенности : 4:2:0
Битовая глубина : 8 бит
Тип развёртки : Прогрессивная
Бит/(Пиксели*Кадры) : 0.195
Размер потока : 73,1 Мбайт (86%)
Библиотека кодирования : x264 core 144 r2525 40bb568
Настройки программы : cabac=1 / ref=16 / deblock=1:-1:-1 / analyse=0x3:0x133 / me=umh / subme=10 / psy=1 / psy_rd=1.00:0.15 / mixed_ref=1 / me_range=24 / chroma_me=1 / trellis=2 / 8x8dct=1 / cqm=0 / deadzone=21,11 / fast_pskip=1 / chroma_qp_offset=-3 / threads=6 / lookahead_threads=1 / sliced_threads=0 / nr=0 / decimate=1 / interlaced=0 / bluray_compat=0 / constrained_intra=0 / bframes=8 / b_pyramid=2 / b_adapt=2 / b_bias=0 / direct=3 / weightb=1 / open_gop=0 / weightp=2 / keyint=250 / keyint_min=25 / scenecut=40 / intra_refresh=0 / rc_lookahead=60 / rc=2pass / mbtree=1 / bitrate=1500 / ratetol=1.0 / qcomp=0.60 / qpmin=0 / qpmax=69 / qpstep=4 / cplxblur=20.0 / qblur=0.5 / vbv_maxrate=62500 / vbv_bufsize=78125 / nal_hrd=none / filler=0 / ip_ratio=1.40 / aq=1:1.00
Default : Да
Forced : Нет
Аудио
Идентификатор : 2
Формат : AC-3
Формат/Информация : Audio Coding 3
Расширение режима : CM (complete main)
Параметр Endianness формата : Big
Идентификатор кодека : A_AC3
Продолжительность : 7 м. 7 с.
Вид битрейта : Постоянный
Битрейт : 192 Кбит/сек
Каналы : 2 канала
Расположение каналов : Front: L R
Частота : 48,0 КГц
Битовая глубина : 16 бит
Метод сжатия : С потерями
Размер потока : 9,78 Мбайт (12%)
Язык : German
Default : Да
Forced : Нет
Текст
Идентификатор : 3
Формат : UTF-8
Идентификатор кодека : S_TEXT/UTF8
Идентификатор кодека/Информация : UTF-8 Plain Text
Язык : Russian
Default : Да
Forced : Нет

Скриншоты

Резервные скриншоты

-[2'110]
[teatrix.ru].t20324.torrent 
Торрент: Зарегистрирован [ 2016-03-19 20:39 ] · 681B068E0DA026AB356205AA4ACA250D721D28C3

Скачать .torrent

Скачать

14 KB

Статус: проверено
Скачан: 0 раз
Размер: 85 MB
terms.php



Показать сообщения:    

Текущее время: 03-Дек 18:38

Часовой пояс: UTC + 3


Вы не можете начинать темы
Вы не можете отвечать на сообщения
Вы не можете редактировать свои сообщения
Вы не можете удалять свои сообщения
Вы не можете голосовать в опросах
Вы не можете прикреплять файлы к сообщениям
Вы можете скачивать файлы