(Classical, Violin) Saint-saens: Introduction And Rondo Capriccioso, Op.28; Habanera, Op.83 / Massenet: Meditation From ''Thais'' / Beethoven: Romance In F Major, Op.50 / Sarasate: Zigeunerweisen {Maehashi, Koizumi}, 1983, FLAC (tracks+.cue) lossless


Статистика раздачи [Обновить пиров]
Размер:  202 MB   |    Зарегистрирован:  8 месяцев 15 дней   |    Скачан:  0 раз

Полного источника не было: Никогда

 
   
 
 
 

[Цитировать]

Teiko Maehashi - Zigeunerweisen (1983)
Жанр: Classical
Страна-производитель диска: Japan
Год издания диска: 1989
Издатель (лейбл): CBS / SONY
Номер по каталогу: 22DC-5557
Дата записи: 1982
Аудиокодек: FLAC
Тип рипа: tracks+.cue
Битрейт аудио: lossless
Продолжительность: 00:41:07
Источник: собственный рип
Наличие сканов в содержимом раздачи: нет, есть фото в папке Artwork
Треклист:
01. Introduction And Rondo Capriccioso, Op.28 (Camille Saint-saens) (9:18)
02. Habanera, Op.83 (Camille Saint-saens) (9:46)
03. Meditation From ''Thais'' (Jules Massenet) (4:45)
04. Romance In F Major, Op.50 (Ludwig Van Beethoven) (8:38)
05. Zigeunerweisen, Op.20 (Pablo De Sarasate) (8:41)Исполнители:
Teiko Maehashi : violin
Tokyo Metropolitan Symphony Orchestra
Kazuhiro Koizumi : conductor

Лог создания рипа

Exact Audio Copy V1.0 beta 1 from 15. November 2010
EAC extraction logfile from 6. February 2015, 19:52
Teiko Maehashi / Zigeunerweisen
Used drive : Optiarc DVD RW AD-7200A Adapter: 0 ID: 0
Read mode : Secure
Utilize accurate stream : Yes
Defeat audio cache : Yes
Make use of C2 pointers : No
Read offset correction : 48
Overread into Lead-In and Lead-Out : No
Fill up missing offset samples with silence : Yes
Delete leading and trailing silent blocks : No
Null samples used in CRC calculations : Yes
Used interface : Native Win32 interface for Win NT & 2000
Gap handling : Appended to previous track
Used output format : User Defined Encoder
Selected bitrate : 768 kBit/s
Quality : High
Add ID3 tag : No
Command line compressor : C:\Program Files\Exact Audio Copy\Flac\flac.exe
Additional command line options : -8 -V -T "ARTIST=%a" -T "TITLE=%t" -T "ALBUM=%g" -T "DATE=%y" -T "TRACKNUMBER=%n" -T "TOTALTRACKS=%x" -T "GENRE=%m" -T "ALBUMARTIST=%v" -T "ALBUM ARTIST=%v" -T "COMMENT=EAC Secure Mode, Test & Copy, AccurateRip, FLAC -8" %s
TOC of the extracted CD
Track | Start | Length | Start sector | End sector
---------------------------------------------------------
1 | 0:00.00 | 9:18.12 | 0 | 41861
2 | 9:18.12 | 9:45.50 | 41862 | 85786
3 | 19:03.62 | 4:44.70 | 85787 | 107156
4 | 23:48.57 | 8:38.05 | 107157 | 146011
5 | 32:26.62 | 8:40.50 | 146012 | 185061
Track 1
Filename F:\What.CD\Teiko Maehashi - Zigeunerweisen (1983) [FLAC]\01 - Introduction And Rondo Capriccioso, Op.28 (Camille Saint-saens).wav
Pre-gap length 0:00:02.00
Peak level 68.7 %
Extraction speed 2.8 X
Track quality 100.0 %
Test CRC 3174D5CF
Copy CRC 3174D5CF
Accurately ripped (confidence 2) [93C747B1]
Copy OK
Track 2
Filename F:\What.CD\Teiko Maehashi - Zigeunerweisen (1983) [FLAC]\02 - Habanera, Op.83 (Camille Saint-saens).wav
Pre-gap length 0:00:03.02
Peak level 69.0 %
Extraction speed 3.4 X
Track quality 100.0 %
Test CRC 51120841
Copy CRC 51120841
Accurately ripped (confidence 2) [BC9974BC]
Copy OK
Track 3
Filename F:\What.CD\Teiko Maehashi - Zigeunerweisen (1983) [FLAC]\03 - Meditation From ''Thais'' (Jules Massenet).wav
Pre-gap length 0:00:04.32
Peak level 65.6 %
Extraction speed 3.2 X
Track quality 99.9 %
Test CRC 53D62CD2
Copy CRC 53D62CD2
Accurately ripped (confidence 2) [BBFA2C02]
Copy OK
Track 4
Filename F:\What.CD\Teiko Maehashi - Zigeunerweisen (1983) [FLAC]\04 - Romance In F Major, Op.50 (Ludwig Van Beethoven).wav
Pre-gap length 0:00:03.45
Peak level 49.8 %
Extraction speed 4.1 X
Track quality 100.0 %
Test CRC 817D4101
Copy CRC 817D4101
Accurately ripped (confidence 2) [944AF3E7]
Copy OK
Track 5
Filename F:\What.CD\Teiko Maehashi - Zigeunerweisen (1983) [FLAC]\05 - Zigeunerweisen, Op.20 (Pablo De Sarasate).wav
Pre-gap length 0:00:02.52
Peak level 98.9 %
Extraction speed 4.2 X
Track quality 99.9 %
Test CRC 22E60F68
Copy CRC 22E60F68
Accurately ripped (confidence 2) [F5209B81]
Copy OK
All tracks accurately ripped
No errors occurred
End of status report
==== Log checksum 735B14B3FD86E5411255366306F6C422A1B86F5930C61241C6ADFAB037989895 ====

Содержание индексной карты (.CUE)

REM GENRE Classical
REM DATE 1983
REM DISCID 3609A305
REM COMMENT "ExactAudioCopy v1.0b1"
PERFORMER "Teiko Maehashi"
TITLE "Zigeunerweisen"
FILE "01 - Introduction And Rondo Capriccioso, Op.28 (Camille Saint-saens).wav" WAVE
TRACK 01 AUDIO
TITLE "Introduction And Rondo Capriccioso, Op.28 (Camille Saint-saens)"
PERFORMER "Teiko Maehashi"
INDEX 01 00:00:00
TRACK 02 AUDIO
TITLE "Habanera, Op.83 (Camille Saint-saens)"
PERFORMER "Teiko Maehashi"
INDEX 00 09:15:10
FILE "02 - Habanera, Op.83 (Camille Saint-saens).wav" WAVE
INDEX 01 00:00:00
TRACK 03 AUDIO
TITLE "Meditation From ''Thais'' (Jules Massenet)"
PERFORMER "Teiko Maehashi"
INDEX 00 09:41:18
FILE "03 - Meditation From ''Thais'' (Jules Massenet).wav" WAVE
INDEX 01 00:00:00
TRACK 04 AUDIO
TITLE "Romance In F Major, Op.50 (Ludwig Van Beethoven)"
PERFORMER "Teiko Maehashi"
INDEX 00 04:41:25
FILE "04 - Romance In F Major, Op.50 (Ludwig Van Beethoven).wav" WAVE
INDEX 01 00:00:00
TRACK 05 AUDIO
TITLE "Zigeunerweisen, Op.20 (Pablo De Sarasate)"
PERFORMER "Teiko Maehashi"
INDEX 00 08:35:28
FILE "05 - Zigeunerweisen, Op.20 (Pablo De Sarasate).wav" WAVE
INDEX 01 00:00:00
Доп. информация: Recorded: Dec., 18, 26, 27, 1982, Higashi Matsuyama Bunka-Kaikan
[teatrix.ru].t20325.torrent 
Торрент: Зарегистрирован [ 2016-03-19 20:39 ] · 2EBCEF92F2319500C5B1D3CFAE0B3578A56C8658

Скачать .torrent

Скачать

17 KB

Статус: проверено
Скачан: 0 раз
Размер: 202 MB
terms.php



Быстрый ответ

Имя:

      
Для отправки сообщений необходимо включить JavaScript
Показать сообщения:    

Текущее время: 04-Дек 15:16

Часовой пояс: UTC + 3


Вы можете начинать темы
Вы можете отвечать на сообщения
Вы не можете редактировать свои сообщения
Вы не можете удалять свои сообщения
Вы не можете голосовать в опросах
Вы не можете прикреплять файлы к сообщениям
Вы можете скачивать файлы