Голливуд играет в игры / Hollywood Goes Gaming (Грегг Бейкер / Gregg Backer) [2007, документальный, кинематограф, DVB] DVO (Amedia)


Статистика раздачи [Обновить пиров]
Размер:  1.07 GB   |    Зарегистрирован:  8 месяцев 15 дней   |    Скачан:  0 раз

Полного источника не было: Никогда

 
   
 
 
 

[Цитировать]

Голливуд играет в игры
Hollywood Goes Gaming- Дата/Год выпуска: 2007
Страна: США
Жанр: документальный, кинематограф
Продолжительность: 00:59:32
Перевод: Профессиональный (двухголосый закадровый)
Доп. инфо о переводе: Amedia
Русские субтитры: нет
Режиссер: Грегг Бейкер / Gregg Backer
Телеканал: Amedia 1В ролях: Пол У.С. Андерсон, Клайв Баркер, Дуэйн "Скала" Джонсон, Шайа ЛаБаф, Анджелина Джоли
Описание: Компьютерные игры являются бестселлерами нового поколения. Именно поэтому их переносят на большие экраны. В настоящее время некоторые игры дают прибыли намного больше, чем кино. Современные технологии продвинулись так, что от них захватывает дух. И люди приближаются все ближе к тому, чего даже не видели. Киноискусство неизбежно меняется и по иронии судьбы напоминает видео игры. Теперь после каждого блокбастера создают подобную игру. Происходит невероятное слияние…
Доп. информация: DVB-S

качество: DVB
формат: MKV
Видео: MPEG Video 2, 720x576@1024x576 (16:9), 25 fps, ~2341 kbps avg, 0.226 bit/pixel
Аудио: Французский (MPEG Audio 2, 2 ch, 48 kHz, ~192.00 kbps avg)

MediaInfo

Общее
Уникальный идентификатор : 246924163662861253104827652354095496628 (0xB9C3DD3449D5A10DA3CD254C8520BDB4)
Полное имя : E:\My Torrents 2\[apreder]Hollywood_Goes_Gaming(2007)DVB.mkv
Формат : Matroska
Версия формата : Version 2
Размер файла : 1,07 Гбайт
Продолжительность : 59 м.
Режим общего битрейта : Переменный
Общий поток : 2585 Кбит/сек
Дата кодирования : UTC 2015-02-08 14:56:14
Программа кодирования : mkvmerge v7.5.0 ('Glass Culture') 64bit built on Jan 4 2015 16:48:44
Библиотека кодирования : libebml v1.3.1 + libmatroska v1.4.2
Видео
Идентификатор : 1
Формат : MPEG Video
Версия формата : Version 2
Профиль формата : Main@Main
Параметр BVOP формата : Да
Параметр матрицы формата : Выборочная
Параметр GOP формата : Variable
Format_Settings_PictureStructure : Frame
Идентификатор кодека : V_MPEG2
Идентификатор кодека/Информация : MPEG 1 or 2 Video
Продолжительность : 59 м.
Вид битрейта : Переменный
Битрейт : 2341 Кбит/сек
Ширина : 720 пикселей
Высота : 576 пикселей
Соотношение сторон : 16:9
Режим частоты кадров : Постоянный
Частота кадров : 25,000 кадров/сек
Стандарт вещания : PAL
Цветовое пространство : YUV
Субдискретизация насыщенности : 4:2:0
Битовая глубина : 8 бит
Тип развёртки : Чересстрочная
Порядок развёртки : Верхнее поле первое
Метод сжатия : С потерями
Бит/(Пиксели*Кадры) : 0.226
Временной код первого кадра : 00:00:00:00
Оригинал временного кода : Group of pictures header
Размер потока : 997 Мбайт (91%)
Default : Да
Forced : Нет
Аудио
Идентификатор : 2
Формат : MPEG Audio
Версия формата : Version 1
Профиль формата : Layer 2
Идентификатор кодека : A_MPEG/L2
Идентификатор кодека/Подсказка : MP2
Продолжительность : 59 м.
Вид битрейта : Постоянный
Битрейт : 192 Кбит/сек
Каналы : 2 канала
Частота : 48,0 КГц
Метод сжатия : С потерями
Размер потока : 81,8 Мбайт (7%)
Язык : Russian
Default : Да
Forced : Нет

Скриншоты

Резервные скриншоты

-[2'111]
[teatrix.ru].t20326.torrent 
Торрент: Зарегистрирован [ 2016-03-19 20:39 ] · 4AE5BEF84BD82D910516ADB1F77825C00D75707B

Скачать .torrent

Скачать

11 KB

Статус: проверено
Скачан: 0 раз
Размер: 1.07 GB
terms.php



Показать сообщения:    

Текущее время: 04-Дек 19:22

Часовой пояс: UTC + 3


Вы не можете начинать темы
Вы не можете отвечать на сообщения
Вы не можете редактировать свои сообщения
Вы не можете удалять свои сообщения
Вы не можете голосовать в опросах
Вы не можете прикреплять файлы к сообщениям
Вы можете скачивать файлы