(Classical / Orchestral) Antonin Dvorak - Slovanske tance / Slawische Tanze / Slavonic Dances / Антонин Дворжак - Славянские танцы (Budapest Festival Orchestra, Ivan Fischer, 1999) - 2001, FLAC (tracks+.cue) lossless


 

[Цитировать]

Antonín Dvořák | Антонин Дворжак
(1841–1904)



Slovanské tance | Slawische Tänze | Slavonic Dances | Славянские танцы


Budapesti Fesztiválzenekar (Budapest Festival Orchestra)
Iván Fischer conductor


Жанр: Classical / Orchestral
Дата и место записи: Italian Institute, Budapest, V.1999
Формат записи: DDD, Stereo
Год издания диска: 2001
Издатель (лейбл): Philips
Номер по каталогу: 464 601-2
Аудиокодек: FLAC
Тип рипа: tracks+.cue
Битрейт аудио: lossless
Продолжительность: 1:10:26
Наличие сканов в содержимом раздачи: нет
Источник: What.CD
Релизёр: Joeywhat


Tracklist / Треклист
Slovanské tance, Op. 46 - 35:17
Nr. 1 C-dur: Presto - 4:11
  • Nr. 2 e-moll: Allegretto scherzando - 4:51
  • Nr. 3 As-dur: Poco allegro - 3:55
  • Nr. 4 F-dur: Tempo di Minuetto - 6:10
  • Nr. 5 A-dur: Allegro vivace - 3:19
  • Nr. 6 D-dur: Allegretto scherzando - 5:01
  • Nr. 7 c-moll: Allegro assai - 3:29
  • Nr. 8 g-moll: Presto - 4:20
    Slovanské tance, Op. 72 - 35:09
    Nr. 1 H-dur: Molto vivace - 4:18
  • Nr. 2 e-moll: Allegretto grazioso - 6:07
  • Nr. 3 F-dur: Allegro - 3:29
  • Nr. 4 Des-dur: Allegretto grazioso - 4:50
  • Nr. 5 b-moll: Poco adagio. — Vivace - 2:45
  • Nr. 6 B-dur: Moderato, quasi Minuetto - 3:37
  • Nr. 7 C-dur: Presto - 3:18
  • Nr. 8 As-dur: Grazioso e lento, ma non troppo, quasi tempo di Valse - 6:45

    -

    EAC log / Отчёт EAC

    Exact Audio Copy V1.0 beta 3 from 29. August 2011
    EAC extraction logfile from 17. June 2013, 14:53
    Iván Fischer, Budapest Festival Orchestra / Antonin Dvorak: Slavonic Dances
    Used drive : ASUS DRW-22B1ST Adapter: 7 ID: 0
    Read mode : Secure
    Utilize accurate stream : Yes
    Defeat audio cache : Yes
    Make use of C2 pointers : No
    Read offset correction : 6
    Overread into Lead-In and Lead-Out : No
    Fill up missing offset samples with silence : Yes
    Delete leading and trailing silent blocks : No
    Null samples used in CRC calculations : Yes
    Used interface : Native Win32 interface for Win NT & 2000
    Gap handling : Appended to previous track
    Used output format : User Defined Encoder
    Selected bitrate : 1024 kBit/s
    Quality : High
    Add ID3 tag : No
    Command line compressor : C:\Program Files (x86)\Exact Audio Copy\Flac\flac.exe
    Additional command line options : -8 -V -T "ARTIST=%artist%" -T "TITLE=%title%" -T "ALBUM=%albumtitle%" -T "DATE=%year%" -T "TRACKNUMBER=%tracknr%" -T "GENRE=%genre%" -T "PERFORMER=%albuminterpret%" -T "COMPOSER=%composer%" %haslyrics%--tag-from-file=LYRICS="%lyricsfile%"%haslyrics% -T "ALBUMARTIST=%albumartist%" -T "DISCNUMBER=%cdnumber%" -T "TOTALDISCS=%totalcds%" -T "TOTALTRACKS=%numtracks%" -T "COMMENT=%comment%" %source% -o %dest%
    TOC of the extracted CD
    Track | Start | Length | Start sector | End sector
    ---------------------------------------------------------
    1 | 0:00.00 | 4:10.40 | 0 | 18789
    2 | 4:10.40 | 4:51.03 | 18790 | 40617
    3 | 9:01.43 | 3:55.32 | 40618 | 58274
    4 | 12:57.00 | 6:10.00 | 58275 | 86024
    5 | 19:07.00 | 3:19.28 | 86025 | 100977
    6 | 22:26.28 | 5:01.32 | 100978 | 123584
    7 | 27:27.60 | 3:28.63 | 123585 | 139247
    8 | 30:56.48 | 4:20.15 | 139248 | 158762
    9 | 35:16.63 | 4:18.30 | 158763 | 178142
    10 | 39:35.18 | 6:07.05 | 178143 | 205672
    11 | 45:42.23 | 3:29.07 | 205673 | 221354
    12 | 49:11.30 | 4:49.58 | 221355 | 243087
    13 | 54:01.13 | 2:45.15 | 243088 | 255477
    14 | 56:46.28 | 3:37.02 | 255478 | 271754
    15 | 60:23.30 | 3:17.50 | 271755 | 286579
    16 | 63:41.05 | 6:44.73 | 286580 | 316952
    Track 1
    Filename D:\Uploads\FLAC\Ivan Fischer, Budapest Festival Orchestra - Slavonic Dances (2002) [FLAC]\01 Slavonic Dances, Op.46 No.1 in C major - Presto.wav
    Pre-gap length 0:00:02.00
    Peak level 100.0 %
    Extraction speed 2.0 X
    Track quality 100.0 %
    Test CRC 81357E3D
    Copy CRC 81357E3D
    Accurately ripped (confidence 8) [46117A4A] (AR v1)
    Copy OK
    Track 2
    Filename D:\Uploads\FLAC\Ivan Fischer, Budapest Festival Orchestra - Slavonic Dances (2002) [FLAC]\02 Slavonic Dances, Op.46 No.2 in E minor - Allegretto scherzando.wav
    Pre-gap length 0:00:04.02
    Peak level 92.6 %
    Extraction speed 2.2 X
    Track quality 100.0 %
    Test CRC 1F6DCA99
    Copy CRC 1F6DCA99
    Accurately ripped (confidence 9) [9C95C334] (AR v1)
    Copy OK
    Track 3
    Filename D:\Uploads\FLAC\Ivan Fischer, Budapest Festival Orchestra - Slavonic Dances (2002) [FLAC]\03 Slavonic Dances, Op.46 No.3 in A flat major - Poco allegro.wav
    Pre-gap length 0:00:05.73
    Peak level 100.0 %
    Extraction speed 2.3 X
    Track quality 100.0 %
    Test CRC 34B40D24
    Copy CRC 34B40D24
    Accurately ripped (confidence 9) [C2843EFB] (AR v1)
    Copy OK
    Track 4
    Filename D:\Uploads\FLAC\Ivan Fischer, Budapest Festival Orchestra - Slavonic Dances (2002) [FLAC]\04 Slavonic Dances, Op.46 No.4 in F major - Tempo di minuetto.wav
    Pre-gap length 0:00:04.00
    Peak level 100.0 %
    Extraction speed 2.7 X
    Track quality 100.0 %
    Test CRC 52D3AC54
    Copy CRC 52D3AC54
    Accurately ripped (confidence 9) [9DB7E538] (AR v1)
    Copy OK
    Track 5
    Filename D:\Uploads\FLAC\Ivan Fischer, Budapest Festival Orchestra - Slavonic Dances (2002) [FLAC]\05 Slavonic Dances, Op.46 No.5 in A major - Allegro vivace.wav
    Pre-gap length 0:00:04.73
    Peak level 100.0 %
    Extraction speed 2.7 X
    Track quality 100.0 %
    Test CRC 53806269
    Copy CRC 53806269
    Accurately ripped (confidence 9) [1F4FD5CF] (AR v1)
    Copy OK
    Track 6
    Filename D:\Uploads\FLAC\Ivan Fischer, Budapest Festival Orchestra - Slavonic Dances (2002) [FLAC]\06 Slavonic Dances, Op.46 No.6 in D major - Allegretto scherzando.wav
    Pre-gap length 0:00:03.84
    Peak level 100.0 %
    Extraction speed 2.3 X
    Track quality 99.9 %
    Test CRC F16E2595
    Copy CRC F16E2595
    Accurately ripped (confidence 9) [B41BCD83] (AR v1)
    Copy OK
    Track 7
    Filename D:\Uploads\FLAC\Ivan Fischer, Budapest Festival Orchestra - Slavonic Dances (2002) [FLAC]\07 Slavonic Dances, Op.46 No.7 in C minor - Allegro assai.wav
    Pre-gap length 0:00:05.20
    Peak level 100.0 %
    Extraction speed 2.1 X
    Track quality 99.9 %
    Test CRC 22308FDF
    Copy CRC 22308FDF
    Accurately ripped (confidence 9) [54CCBEA0] (AR v1)
    Copy OK
    Track 8
    Filename D:\Uploads\FLAC\Ivan Fischer, Budapest Festival Orchestra - Slavonic Dances (2002) [FLAC]\08 Slavonic Dances, Op.46 No.8 in G minor - Presto.wav
    Pre-gap length 0:00:03.30
    Peak level 100.0 %
    Extraction speed 3.1 X
    Track quality 100.0 %
    Test CRC 1FBD9AA8
    Copy CRC 1FBD9AA8
    Accurately ripped (confidence 9) [1561770A] (AR v1)
    Copy OK
    Track 9
    Filename D:\Uploads\FLAC\Ivan Fischer, Budapest Festival Orchestra - Slavonic Dances (2002) [FLAC]\09 Slavonic Dances, Op.72 No.1 in B major - Molto vivace.wav
    Pre-gap length 0:00:08.20
    Peak level 100.0 %
    Extraction speed 3.3 X
    Track quality 100.0 %
    Test CRC B1B16D7D
    Copy CRC B1B16D7D
    Accurately ripped (confidence 9) [62B25C0C] (AR v1)
    Copy OK
    Track 10
    Filename D:\Uploads\FLAC\Ivan Fischer, Budapest Festival Orchestra - Slavonic Dances (2002) [FLAC]\10 Slavonic Dances, Op.72 No.2 in E minor - Allegretto grazioso.wav
    Pre-gap length 0:00:05.37
    Peak level 48.1 %
    Extraction speed 3.5 X
    Track quality 100.0 %
    Test CRC 1ADA3ACB
    Copy CRC 1ADA3ACB
    Accurately ripped (confidence 9) [BD2B3446] (AR v1)
    Copy OK
    Track 11
    Filename D:\Uploads\FLAC\Ivan Fischer, Budapest Festival Orchestra - Slavonic Dances (2002) [FLAC]\11 Slavonic Dances, Op.72 No.3 in F major - Allegro.wav
    Pre-gap length 0:00:06.57
    Peak level 100.0 %
    Extraction speed 3.4 X
    Track quality 100.0 %
    Test CRC 0D086067
    Copy CRC 0D086067
    Accurately ripped (confidence 9) [1FE13F2C] (AR v1)
    Copy OK
    Track 12
    Filename D:\Uploads\FLAC\Ivan Fischer, Budapest Festival Orchestra - Slavonic Dances (2002) [FLAC]\12 Slavonic Dances, Op.72 No.4 in D flat major - Allegretto grazioso.wav
    Pre-gap length 0:00:04.40
    Peak level 50.7 %
    Extraction speed 3.7 X
    Track quality 100.0 %
    Test CRC B57D5DCB
    Copy CRC B57D5DCB
    Accurately ripped (confidence 9) [C971E104] (AR v1)
    Copy OK
    Track 13
    Filename D:\Uploads\FLAC\Ivan Fischer, Budapest Festival Orchestra - Slavonic Dances (2002) [FLAC]\13 Slavonic Dances, Op.72 No.5 in B flat minor - Poco adagio.wav
    Pre-gap length 0:00:03.84
    Peak level 100.0 %
    Extraction speed 3.5 X
    Track quality 100.0 %
    Test CRC B569F3EB
    Copy CRC B569F3EB
    Accurately ripped (confidence 9) [E1247B0C] (AR v1)
    Copy OK
    Track 14
    Filename D:\Uploads\FLAC\Ivan Fischer, Budapest Festival Orchestra - Slavonic Dances (2002) [FLAC]\14 Slavonic Dances, Op.72 No.6 in B flat major - Moderato, quasi minuetto.wav
    Pre-gap length 0:00:03.44
    Peak level 76.8 %
    Extraction speed 3.7 X
    Track quality 100.0 %
    Test CRC 03233479
    Copy CRC 03233479
    Accurately ripped (confidence 9) [FA1F1098] (AR v1)
    Copy OK
    Track 15
    Filename D:\Uploads\FLAC\Ivan Fischer, Budapest Festival Orchestra - Slavonic Dances (2002) [FLAC]\15 Slavonic Dances, Op.72 No.7 in C major - Allegro vivace.wav
    Pre-gap length 0:00:04.40
    Peak level 100.0 %
    Extraction speed 3.8 X
    Track quality 100.0 %
    Test CRC 18B5C2A2
    Copy CRC 18B5C2A2
    Accurately ripped (confidence 8) [831636E8] (AR v1)
    Copy OK
    Track 16
    Filename D:\Uploads\FLAC\Ivan Fischer, Budapest Festival Orchestra - Slavonic Dances (2002) [FLAC]\16 Slavonic Dances, Op.72 No.8 in A flat major - Grazioso e lento.wav
    Pre-gap length 0:00:05.60
    Peak level 72.4 %
    Extraction speed 4.2 X
    Track quality 100.0 %
    Test CRC 15B48680
    Copy CRC 15B48680
    Accurately ripped (confidence 9) [132A40E7] (AR v1)
    Copy OK
    All tracks accurately ripped
    No errors occurred
    End of status report
    ---- CUETools DB Plugin V2.1.3
    [CTDB TOCID: fOkcLG6Py5b4Y4cKhEWdWdZ244c-] found, Submit result: fOkcLG6Py5b4Y4cKhEWdWdZ244c- has been confirmed
    [a12c4d40] (1/7) Accurately ripped
    [c1cb0f93] (6/7) No match
    ==== Log checksum B3AC401CA3E6313D21FBE36A82CA60687D877A85361623277517053280589B22 ====

    auCDtect Task Manager log / Отчёт auCDtect Task Manager

    -----------------------
    DON'T MODIFY THIS FILE
    -----------------------
    PERFORMER: auCDtect Task Manager, ver. 1.5.1RC3 build 1.5.1.4
    Copyright (c) 2008-2010 y-soft. All rights reserved
    ANALYZER: auCDtect: CD records authenticity detector, version 0.8.2
    Copyright (c) 2004 Oleg Berngardt. All rights reserved.
    Copyright (c) 2004 Alexander Djourik. All rights reserved.
    FILE: 16 - Slovanske tance, Op. 72 - Nr. 8 As-dur. Grazioso e lento, ma non troppo, quasi tempo di Valse.flac
    Size: 30563484 Hash: A1A4F6CFCBEC3A8851CA553083507CAE Accuracy: -m0
    Conclusion: MPEG 80%
    Signature: 8545327EDAF2253F6B3D5D78C6B7CE49B3C2B4DC
    FILE: 15 - Slovanske tance, Op. 72 - Nr. 7 C-dur. Presto.flac
    Size: 18239247 Hash: E5BA3294000066F00C46E5198B336D93 Accuracy: -m0
    Conclusion: CDDA 100%
    Signature: D98A77C32DA224B610B88BB7099AB85C6EDED075
    FILE: 14 - Slovanske tance, Op. 72 - Nr. 6 B-dur. Moderato, quasi Minuetto.flac
    Size: 16548965 Hash: 346B7B68447EC25CF3659721C133C888 Accuracy: -m0
    Conclusion: MPEG 80%
    Signature: A490FF726E086EE141D6B1DF8B5217390624A8AA
    FILE: 13 - Slovanske tance, Op. 72 - Nr. 5 b-moll. Poco adagio. - Vivace.flac
    Size: 15168915 Hash: 3698366091CFEEB40360B6DB26852B49 Accuracy: -m0
    Conclusion: CDDA 100%
    Signature: 831A80CDCC60273F27731AE10D2AD1E17F983CA3
    FILE: 12 - Slovanske tance, Op. 72 - Nr. 4 Des-dur. Allegretto grazioso.flac
    Size: 21609249 Hash: 72549C0F62A298BC94EDDD43A3A3FE22 Accuracy: -m0
    Conclusion: MPEG 89%
    Signature: EB49490EDEE502C413C060815ACC61A2E32756E5
    FILE: 11 - Slovanske tance, Op. 72 - Nr. 3 F-dur. Allegro.flac
    Size: 17603888 Hash: D3D6D74317384CAA281AE0295E77C742 Accuracy: -m0
    Conclusion: CDDA 87%
    Signature: 7066EBF3A5339C05DF3FB700E36E5286013FFBDA
    FILE: 10 - Slovanske tance, Op. 72 - Nr. 2 e-moll. Allegretto grazioso.flac
    Size: 27771867 Hash: E8997A3BE894F9B4D9733BE098737F32 Accuracy: -m0
    Conclusion: CDDA 43%
    Signature: 1AC962EDB7CA8D5A3100CA28651C909CCDE0AA33
    FILE: 09 - Slovanske tance, Op. 72 - Nr. 1 H-dur. Molto vivace.flac
    Size: 22608383 Hash: F1BD01F43AAC2E27521943A5DEFC7799 Accuracy: -m0
    Conclusion: CDDA 85%
    Signature: FF4DD739926D03F78A2BC529F72BA8892E7A73C2
    FILE: 08 - Slovanske tance, Op. 46 - Nr. 8 g-moll. Presto.flac
    Size: 21939126 Hash: 995E2D7A651895BBF847E745E6F478CD Accuracy: -m0
    Conclusion: CDDA 87%
    Signature: 4D52E908EB07EE16E7C4AFEE9301A02E3C522F87
    FILE: 07 - Slovanske tance, Op. 46 - Nr. 7 c-moll. Allegro assai.flac
    Size: 16786771 Hash: 48CCD1D28A5AF90A989377721B63A3BC Accuracy: -m0
    Conclusion: CDDA 43%
    Signature: E3D733670AA34C1705E4D20DAE9EFE5DF5D34040
    FILE: 06 - Slovanske tance, Op. 46 - Nr. 6 D-dur. Allegretto scherzando.flac
    Size: 23515514 Hash: D88F13A202F9FCED5EC60AA0C71EA907 Accuracy: -m0
    Conclusion: MPEG 89%
    Signature: 1E864A3E2ED56A6DC313A520275CD1A8836A0C2E
    FILE: 05 - Slovanske tance, Op. 46 - Nr. 5 A-dur. Allegro vivace.flac
    Size: 17489117 Hash: 576314D0A281D7BAA4AC0A70BCCD922A Accuracy: -m0
    Conclusion: CDDA 100%
    Signature: DA251571FF3796C97783453A7CA3363F804B0A42
    FILE: 04 - Slovanske tance, Op. 46 - Nr. 4 F-dur. Tempo di Minuetto.flac
    Size: 28840485 Hash: 68989F7E6E2CF76DAB3CCC109B2DB6E7 Accuracy: -m0
    Conclusion: MPEG 90%
    Signature: 2EA710034C2900963A6781ECF74A927057AD0D2C
    FILE: 03 - Slovanske tance, Op. 46 - Nr. 3 As-dur. Poco allegro.flac
    Size: 19784902 Hash: 9415E2762B51758078F9851F2E42F27A Accuracy: -m0
    Conclusion: CDDA 43%
    Signature: 5B27FAA647EA14DDDA6FEAF264D75858A0B433FE
    FILE: 02 - Slovanske tance, Op. 46 - Nr. 2 e-moll. Allegretto scherzando.flac
    Size: 23615127 Hash: 60F8A49F68D2AC230808E8822A574B9C Accuracy: -m0
    Conclusion: CDDA 42%
    Signature: 14F53A60C8E086FBC8B8D0BD7FA2470250FAD98C
    FILE: 01 - Slovanske tance, Op. 46 - Nr. 1 C-dur. Presto.flac
    Size: 21351112 Hash: 6785D2C2326E93DD304CF36A32751CA0 Accuracy: -m0
    Conclusion: CDDA 85%
    Signature: 39993A2B38C519381A84E18A9B42268B42FB0733

    CUETools log / Отчёт CUETools

    [CUETools log; Date: 09.02.2015 04:16:49; Version: 2.1.4]
    [AccurateRip ID: 0029479b-01ed3689-f5108210] found.
    Track [ CRC | V2 ] Status
    01 [46117a4a|1a004134] (08+04/59) Accurately ripped
    02 [9c95c334|f057fd65] (09+04/60) Accurately ripped
    03 [c2843efb|c0c10218] (09+04/61) Accurately ripped
    04 [9db7e538|6ff190b9] (09+04/61) Accurately ripped
    05 [1f4fd5cf|e52eb71e] (09+04/61) Accurately ripped
    06 [b41bcd83|68189781] (09+04/61) Accurately ripped
    07 [54ccbea0|fc93e971] (09+04/61) Accurately ripped
    08 [1561770a|82ef65ef] (09+04/61) Accurately ripped
    09 [62b25c0c|57d74df3] (09+04/61) Accurately ripped
    10 [bd2b3446|0bb6fb3a] (09+04/61) Accurately ripped
    11 [1fe13f2c|de0c1c57] (09+04/61) Accurately ripped
    12 [c971e104|9233efdd] (09+04/61) Accurately ripped
    13 [e1247b0c|c1f70c87] (09+04/61) Accurately ripped
    14 [fa1f1098|b85a4b31] (09+04/61) Accurately ripped
    15 [831636e8|8e628739] (08+04/60) Accurately ripped
    16 [132a40e7|d111eb76] (09+04/61) Accurately ripped
    Offsetted by -664:
    01 [4fdc3dc9] (03/59) Accurately ripped
    02 [a7b74872] (03/60) Accurately ripped
    03 [347776dd] (03/61) Accurately ripped
    04 [5dac851b] (03/61) Accurately ripped
    05 [f338f9c3] (03/61) Accurately ripped
    06 [3df8a506] (03/61) Accurately ripped
    07 [caa04b5c] (03/61) Accurately ripped
    08 [a1715575] (03/61) Accurately ripped
    09 [5e2b73b0] (03/61) Accurately ripped
    10 [a8282ef6] (03/61) Accurately ripped
    11 [2bae4010] (03/61) Accurately ripped
    12 [9dcc2e0f] (03/61) Accurately ripped
    13 [1e71c325] (03/61) Accurately ripped
    14 [873cd51e] (03/61) Accurately ripped
    15 [5dd30ae8] (03/60) Accurately ripped
    16 [50c47d08] (03/61) Accurately ripped
    Track Peak [ CRC32 ] [W/O NULL] [ LOG ]
    -- 100,0 [CF2785E5] [C89690B4]
    01 100,0 [81357E3D] [1B0DAA2C] CRC32
    02 92,6 [1F6DCA99] [25342E37] CRC32
    03 100,0 [34B40D24] [E1D017DD] CRC32
    04 100,0 [52D3AC54] [57C899E1] CRC32
    05 100,0 [53806269] [9DC6A110] CRC32
    06 100,0 [F16E2595] [8665AEC4] CRC32
    07 100,0 [22308FDF] [7A65CD9B] CRC32
    08 100,0 [1FBD9AA8] [8DB9BA66] CRC32
    09 100,0 [B1B16D7D] [DAD4486F] CRC32
    10 48,1 [1ADA3ACB] [440A814F] CRC32
    11 100,0 [0D086067] [F33230B4] CRC32
    12 50,7 [B57D5DCB] [7240AFD7] CRC32
    13 100,0 [B569F3EB] [2EB2BBE3] CRC32
    14 76,8 [03233479] [48B6EAFE] CRC32
    15 100,0 [18B5C2A2] [1A1B9DB0] CRC32
    16 72,4 [15B48680] [982640EA] CRC32

    CUE sheet

    TITLE "Antonín Dvořák. Slovanské tance"
    PERFORMER "Iván Fischer"
    REM GENRE Classical
    REM DISCID F5108210
    REM COMMENT "ExactAudioCopy v1.0b3"
    CATALOG 0028946460122
    FILE "01 - Slovanske tance, Op. 46 - Nr. 1 C-dur. Presto.flac" WAVE
    TRACK 01 AUDIO
    TITLE "Slovanské tance, Op. 46: Nr. 1 C-dur: Presto"
    PERFORMER "Budapest Festival Orchestra. Iván Fischer, conductor"
    REM DATE 1999
    INDEX 01 00:00:00
    TRACK 02 AUDIO
    TITLE "Slovanské tance, Op. 46: Nr. 2 e-moll: Allegretto scherzando"
    PERFORMER "Budapest Festival Orchestra. Iván Fischer, conductor"
    REM DATE 1999
    INDEX 00 04:06:38
    FILE "02 - Slovanske tance, Op. 46 - Nr. 2 e-moll. Allegretto scherzando.flac" WAVE
    INDEX 01 00:00:00
    TRACK 03 AUDIO
    TITLE "Slovanské tance, Op. 46: Nr. 3 As-dur: Poco allegro"
    PERFORMER "Budapest Festival Orchestra. Iván Fischer, conductor"
    REM DATE 1999
    INDEX 00 04:45:23
    FILE "03 - Slovanske tance, Op. 46 - Nr. 3 As-dur. Poco allegro.flac" WAVE
    INDEX 01 00:00:00
    TRACK 04 AUDIO
    TITLE "Slovanské tance, Op. 46: Nr. 4 F-dur: Tempo di Minuetto"
    PERFORMER "Budapest Festival Orchestra. Iván Fischer, conductor"
    REM DATE 1999
    INDEX 00 03:51:32
    FILE "04 - Slovanske tance, Op. 46 - Nr. 4 F-dur. Tempo di Minuetto.flac" WAVE
    INDEX 01 00:00:00
    TRACK 05 AUDIO
    TITLE "Slovanské tance, Op. 46: Nr. 5 A-dur: Allegro vivace"
    PERFORMER "Budapest Festival Orchestra. Iván Fischer, conductor"
    REM DATE 1999
    INDEX 00 06:05:20
    FILE "05 - Slovanske tance, Op. 46 - Nr. 5 A-dur. Allegro vivace.flac" WAVE
    INDEX 01 00:00:00
    TRACK 06 AUDIO
    TITLE "Slovanské tance, Op. 46: Nr. 6 D-dur: Allegretto scherzando"
    PERFORMER "Budapest Festival Orchestra. Iván Fischer, conductor"
    REM DATE 1999
    INDEX 00 03:15:40
    FILE "06 - Slovanske tance, Op. 46 - Nr. 6 D-dur. Allegretto scherzando.flac" WAVE
    INDEX 01 00:00:00
    TRACK 07 AUDIO
    TITLE "Slovanské tance, Op. 46: Nr. 7 c-moll: Allegro assai"
    PERFORMER "Budapest Festival Orchestra. Iván Fischer, conductor"
    REM DATE 1999
    INDEX 00 04:56:17
    FILE "07 - Slovanske tance, Op. 46 - Nr. 7 c-moll. Allegro assai.flac" WAVE
    INDEX 01 00:00:00
    TRACK 08 AUDIO
    TITLE "Slovanské tance, Op. 46: Nr. 8 g-moll: Presto"
    PERFORMER "Budapest Festival Orchestra. Iván Fischer, conductor"
    REM DATE 1999
    INDEX 00 03:25:40
    FILE "08 - Slovanske tance, Op. 46 - Nr. 8 g-moll. Presto.flac" WAVE
    INDEX 01 00:00:00
    TRACK 09 AUDIO
    TITLE "Slovanské tance, Op. 72: Nr. 1 H-dur: Molto vivace"
    PERFORMER "Budapest Festival Orchestra. Iván Fischer, conductor"
    REM DATE 1999
    INDEX 00 04:12:00
    FILE "09 - Slovanske tance, Op. 72 - Nr. 1 H-dur. Molto vivace.flac" WAVE
    INDEX 01 00:00:00
    TRACK 10 AUDIO
    TITLE "Slovanské tance, Op. 72: Nr. 2 e-moll: Allegretto grazioso"
    PERFORMER "Budapest Festival Orchestra. Iván Fischer, conductor"
    REM DATE 1999
    INDEX 00 04:13:02
    FILE "10 - Slovanske tance, Op. 72 - Nr. 2 e-moll. Allegretto grazioso.flac" WAVE
    INDEX 01 00:00:00
    TRACK 11 AUDIO
    TITLE "Slovanské tance, Op. 72: Nr. 3 F-dur: Allegro"
    PERFORMER "Budapest Festival Orchestra. Iván Fischer, conductor"
    REM DATE 1999
    INDEX 00 06:00:37
    FILE "11 - Slovanske tance, Op. 72 - Nr. 3 F-dur. Allegro.flac" WAVE
    INDEX 01 00:00:00
    TRACK 12 AUDIO
    TITLE "Slovanské tance, Op. 72: Nr. 4 Des-dur: Allegretto grazioso"
    PERFORMER "Budapest Festival Orchestra. Iván Fischer, conductor"
    REM DATE 1999
    INDEX 00 03:24:52
    FILE "12 - Slovanske tance, Op. 72 - Nr. 4 Des-dur. Allegretto grazioso.flac" WAVE
    INDEX 01 00:00:00
    TRACK 13 AUDIO
    TITLE "Slovanské tance, Op. 72: Nr. 5 b-moll: Poco adagio. — Vivace"
    PERFORMER "Budapest Festival Orchestra. Iván Fischer, conductor"
    REM DATE 1999
    INDEX 00 04:45:70
    FILE "13 - Slovanske tance, Op. 72 - Nr. 5 b-moll. Poco adagio. - Vivace.flac" WAVE
    INDEX 01 00:00:00
    TRACK 14 AUDIO
    TITLE "Slovanské tance, Op. 72: Nr. 6 B-dur: Moderato, quasi Minuetto"
    PERFORMER "Budapest Festival Orchestra. Iván Fischer, conductor"
    REM DATE 1999
    INDEX 00 02:41:57
    FILE "14 - Slovanske tance, Op. 72 - Nr. 6 B-dur. Moderato, quasi Minuetto.flac" WAVE
    INDEX 01 00:00:00
    TRACK 15 AUDIO
    TITLE "Slovanské tance, Op. 72: Nr. 7 C-dur: Presto"
    PERFORMER "Budapest Festival Orchestra. Iván Fischer, conductor"
    REM DATE 1999
    INDEX 00 03:32:47
    FILE "15 - Slovanske tance, Op. 72 - Nr. 7 C-dur. Presto.flac" WAVE
    INDEX 01 00:00:00
    TRACK 16 AUDIO
    TITLE "Slovanské tance, Op. 72: Nr. 8 As-dur: Grazioso e lento, ma non troppo, quasi tempo di Valse"
    PERFORMER "Budapest Festival Orchestra. Iván Fischer, conductor"
    REM DATE 1999
    INDEX 00 03:12:05
    FILE "16 - Slovanske tance, Op. 72 - Nr. 8 As-dur. Grazioso e lento, ma non troppo, quasi tempo di Valse.flac" WAVE
    INDEX 01 00:00:00
    -
    Все мои раздачи / All my releases



  • Показать сообщения:    

    Текущее время: 06-Дек 15:12

    Часовой пояс: UTC + 3


    Вы не можете начинать темы
    Вы не можете отвечать на сообщения
    Вы не можете редактировать свои сообщения
    Вы не можете удалять свои сообщения
    Вы не можете голосовать в опросах
    Вы не можете прикреплять файлы к сообщениям
    Вы не можете скачивать файлы