[TR24][SM][OF] Johannes Schenck - Le Nymphe di Rheno - Wieland Kuijken & Francois Joubert-Caillet - 2013 (Classical)


Статистика раздачи [Обновить пиров]
Размер:  747 MB   |    Зарегистрирован:  8 месяцев 20 дней   |    Скачан:  0 раз

Полного источника не было: Никогда

 
   
 
 
 

[Цитировать]

Johannes Schenck (1656-1716)Жанр: Chamber Music
Носитель: Official Digital Download
Год издания диска: 2013
Издатель(лейбл): Ricercar
Номер по каталогу: RIC 336
Продолжительность: 01:15:15
Наличие сканов в содержимом раздачи: cover art, inlay, booklet
Контейнер: FLAC (*.flac)
Разрядность: 24/44,1
Количество каналов: 2.0
Формат: tracks
Источник: qobuz.com
Pелизер: WEB (thanks to the original customer)
http://www.qobuz.com/fr-fr/album/johannes-schenck-le-nymphe-di-rheno-les-nymphes-...e/5400439003361#

Треклист

Sonata III (D Dur)01. Adagio 2'11
02. Allegro 1'18
03. Adagio 0'44
04. Allegro 1'35
05. Adagio 1'40
06. Allegro 2'04
Sonata VII (h moll)
07. Adagio 2'10
08. Allegro 2'16
09. Adagio con aff etto 2'05
10. Allegro ‒ Aria Amoroso 5'16
Sonata II (A moll)
11. Allegro 1'47
12. Allemande 3'17
13. Corrente 2'18
14. Sarabande 2'41
15. Giga 2'04
Sonata XI (G Dur)
16. Allegro 1'42
17. Aria 1'23
18. Adagio 0'54
19. Ciacona 7'55
Sonata VIII (c moll)
20. Adagio 3'36
21. Allemanda 4'54
22. Corrente 2'33
23. Sarabanda 3'30
24. Giga 2'43
25. Rondeau 1'30
26. Gavotta 1'01
27. Menuet 1'34
Sonata XII (d moll)
28. Allegro-Adagio-Allegro 1'49
29. Aria 2'33
30. Corrente 2'31
31. Allegro-Presto 1'58

Исполнители

Wieland Kuijken bass viol
François Joubert-Caillet bass viol

Dynamic Range Meter

foobar2000 1.2.6 / Dynamic Range Meter 1.1.1
log date: 2015-02-09 21:25:28
--------------------------------------------------------------------------------
Analyzed: Wieland Kuijken, François Joubert-Caillet / Johannes Schenck: Le Nymphe di Rheno (Les Nymphes du Rhin)
--------------------------------------------------------------------------------
DR Peak RMS Duration Track
--------------------------------------------------------------------------------
DR11 -4.09 dB -21.22 dB 2:11 01-Sonata No. 3 in D-Dur:Sonata No. 3 in D-Dur: I. Adagio
DR10 -5.17 dB -19.03 dB 1:18 02-Sonata No. 3 in D-Dur:Sonata No. 3 in D-Dur: II. Allegro
DR7 -12.61 dB -27.79 dB 0:44 03-Sonata No. 3 in D-Dur:Sonata No. 3 in D-Dur: III. Adagio
DR11 -3.26 dB -19.02 dB 1:35 04-Sonata No. 3 in D-Dur:Sonata No. 3 in D-Dur: IV. Allegro
DR9 -8.25 dB -22.10 dB 1:40 05-Sonata No. 3 in D-Dur:Sonata No. 3 in D-Dur: V. Adagio
DR11 -3.57 dB -18.62 dB 2:04 06-Sonata No. 3 in D-Dur:Sonata No. 3 in D-Dur: VI. Allegro
DR12 -2.95 dB -21.48 dB 2:10 07-Sonata No. 7 in H-Moll:Sonata No. 7 in H-Moll: I. Adagio
DR12 -4.16 dB -20.32 dB 2:16 08-Sonata No. 7 in H-Moll:Sonata No. 7 in H-Moll: II. Allegro
DR11 -8.81 dB -23.45 dB 2:05 09-Sonata No. 7 in H-Moll:Sonata No. 7 in H-Moll: III. Adagio con affetto
DR12 -4.81 dB -21.64 dB 5:16 10-Sonata No. 7 in H-Moll:Sonata No. 7 in H-Moll: IV. Allegro - Aria Amoroso
DR12 -3.52 dB -18.92 dB 1:47 11-Sonata No. 2 in A-Moll:Sonata No. 2 in A-Moll: I. Allegro
DR12 -4.25 dB -21.25 dB 3:17 12-Sonata No. 2 in A-Moll:Sonata No. 2 in A-Moll: II. Allemande
DR14 -2.49 dB -19.79 dB 2:18 13-Sonata No. 2 in A-Moll:Sonata No. 2 in A-Moll: III. Corrente
DR11 -6.15 dB -22.64 dB 2:41 14-Sonata No. 2 in A-Moll:Sonata No. 2 in A-Moll: IV. Sarabande
DR11 -3.91 dB -20.14 dB 2:04 15-Sonata No. 2 in A-Moll:Sonata No. 2 in A-Moll: V. Giga
DR11 -5.28 dB -20.94 dB 1:42 16-Sonata No. 11 in G-Dur:Sonata No. 11 in G-Dur: I. Allegro
DR10 -4.41 dB -20.44 dB 1:23 17-Sonata No. 11 in G-Dur:Sonata No. 11 in G-Dur: II. Aria
DR10 -5.16 dB -21.26 dB 0:54 18-Sonata No. 11 in G-Dur:Sonata No. 11 in G-Dur: III. Adagio
DR13 -1.86 dB -20.23 dB 7:55 19-Sonata No. 11 in G-Dur:Sonata No. 11 in G-Dur: IV. Ciacona
DR13 -3.96 dB -21.54 dB 3:36 20-Sonata No. 8 in C-Moll:Sonata No. 8 in C-Moll: I. Adagio
DR12 -5.91 dB -21.81 dB 4:54 21-Sonata No. 8 in C-Moll:Sonata No. 8 in C-Moll: II. Allemanda
DR12 -4.92 dB -19.76 dB 2:33 22-Sonata No. 8 in C-Moll:Sonata No. 8 in C-Moll: III. Corrente
DR13 -4.00 dB -23.01 dB 3:30 23-Sonata No. 8 in C-Moll:Sonata No. 8 in C-Moll: IV. Sarabanda
DR13 -2.51 dB -20.44 dB 2:43 24-Sonata No. 8 in C-Moll:Sonata No. 8 in C-Moll: V. Giga
DR10 -8.28 dB -24.16 dB 1:30 25-Sonata No. 8 in C-Moll:Sonata No. 8 in C-Moll: VI. Rondeau
DR11 -4.90 dB -20.75 dB 1:01 26-Sonata No. 8 in C-Moll:Sonata No. 8 in C-Moll: VII. Gavotta
DR12 -8.37 dB -26.00 dB 1:34 27-Sonata No. 8 in C-Moll:Sonata No. 8 in C-Moll: VIII. Menuet
DR10 -4.66 dB -21.02 dB 1:49 28-Sonata No. 12 in D-Moll:Sonata No. 12 in D-Moll: I. Allegro - Adagio - Allegro
DR11 -8.38 dB -23.33 dB 2:33 29-Sonata No. 12 in D-Moll:Sonata No. 12 in D-Moll: II. Aria
DR13 -2.05 dB -19.55 dB 2:31 30-Sonata No. 12 in D-Moll:Sonata No. 12 in D-Moll: III. Corrente
DR10 -2.75 dB -18.17 dB 1:58 31-Sonata No. 12 in D-Moll:Sonata No. 12 in D-Moll: IV. Allegro - Presto
--------------------------------------------------------------------------------
Number of tracks: 31
Official DR value: DR11
Samplerate: 44100 Hz
Channels: 2
Bits per sample: 24
Bitrate: 1355 kbps
Codec: FLAC
================================================================================
[teatrix.ru].t20329.torrent 
Торрент: Зарегистрирован [ 2016-03-19 20:39 ] · 4E03E1D17CFA85A63B63018AD3ACD4B289757758

Скачать .torrent

Скачать

18 KB

Статус: проверено
Скачан: 0 раз
Размер: 747 MB
terms.php



Быстрый ответ

Имя:

      
Для отправки сообщений необходимо включить JavaScript
Показать сообщения:    

Текущее время: 09-Дек 20:30

Часовой пояс: UTC + 3


Вы можете начинать темы
Вы можете отвечать на сообщения
Вы не можете редактировать свои сообщения
Вы не можете удалять свои сообщения
Вы не можете голосовать в опросах
Вы не можете прикреплять файлы к сообщениям
Вы можете скачивать файлы