(Classical) Monteclair, Clerambault - Cantates et concerts royaux - Le Parlement de Musique, Dorothee Leclair, Martin Gester - 2011, FLAC (image+.cue) lossless


Статистика раздачи [Обновить пиров]
Размер:  303 MB   |    Зарегистрирован:  8 месяцев 14 дней   |    Скачан:  0 раз

Полного источника не было: Никогда

 
   
 
 
 

[Цитировать]

Montéclair, Clérambault - Cantates et concerts royaux - Le Parlement de Musique, Dorothée Leclair, Martin Gester
Жанр: Classical
Страна-производитель диска: France
Год издания диска: 2011
Издатель (лейбл): K617
Номер по каталогу: K617230
Дата записи: 2011
Аудиокодек: FLAC
Тип рипа: image+.cue
Битрейт аудио: lossless
Продолжительность: 70:16
Источник: собственный рип
Наличие сканов в содержимом раздачи: да
Треклист:
Michel Pignolet de Montéclair (1667-1737)
[1]-[2] La Guerre
(extraits du 5ème «Concert pour la flûte traversière et autres instruments» 1724)
[3]-[9] Le Retour de la Paix cantate
[10-[11] La Paix divertissement
(extraits du 6e «Concert pour la flûte traversière et autres instruments» 1724)
[12]-[14] 2ème Concert en do mineur (extraits)
Louis-Nicolas Clérambault (1676-1749)
[16] La Félicité
sonate pour 2 violons et basse continue
[17]-[24] L’isle de Délos cantate
Исполнители:
Le Parlement de Musique
Dorothée Leclair soprano
Martin Gester clavecin et direction

Лог создания рипа

Exact Audio Copy V1.0 beta 3 from 29. August 2011
EAC extraction logfile from 23. July 2014, 1:15
Le Parlement de Musique, Martin Gester / Le Retour de la Paix
Used drive : HL-DT-STDVDRAM GU70N Adapter: 0 ID: 0
Read mode : Secure
Utilize accurate stream : Yes
Defeat audio cache : Yes
Make use of C2 pointers : No
Read offset correction : 48
Overread into Lead-In and Lead-Out : No
Fill up missing offset samples with silence : Yes
Delete leading and trailing silent blocks : No
Null samples used in CRC calculations : Yes
Used interface : Native Win32 interface for Win NT & 2000
Used output format : User Defined Encoder
Selected bitrate : 128 kBit/s
Quality : High
Add ID3 tag : No
Command line compressor : C:\Program Files (x86)\Exact Audio Copy\Flac\flac.exe
Additional command line options : -V -8 -T "Date=%year%" -T "Genre=%genre%" %source%
TOC of the extracted CD
Track | Start | Length | Start sector | End sector
---------------------------------------------------------
1 | 0:00.00 | 1:22.05 | 0 | 6154
2 | 1:22.05 | 1:26.70 | 6155 | 12674
3 | 2:49.00 | 1:52.28 | 12675 | 21102
4 | 4:41.28 | 5:09.61 | 21103 | 44338
5 | 9:51.14 | 1:50.19 | 44339 | 52607
6 | 11:41.33 | 3:23.09 | 52608 | 67841
7 | 15:04.42 | 1:11.66 | 67842 | 73232
8 | 16:16.33 | 1:25.51 | 73233 | 79658
9 | 17:42.09 | 2:13.32 | 79659 | 89665
10 | 19:55.41 | 1:22.32 | 89666 | 95847
11 | 21:17.73 | 1:12.74 | 95848 | 101321
12 | 22:30.72 | 2:48.17 | 101322 | 113938
13 | 25:19.14 | 2:01.36 | 113939 | 123049
14 | 27:20.50 | 2:04.30 | 123050 | 132379
15 | 29:25.05 | 2:49.09 | 132380 | 145063
16 | 32:14.14 | 7:36.26 | 145064 | 179289
17 | 39:50.40 | 3:16.57 | 179290 | 194046
18 | 43:07.22 | 0:56.58 | 194047 | 198304
19 | 44:04.05 | 2:06.32 | 198305 | 207786
20 | 46:10.37 | 3:38.70 | 207787 | 224206
21 | 49:49.32 | 1:11.28 | 224207 | 229559
22 | 51:00.60 | 4:52.07 | 229560 | 251466
23 | 55:52.67 | 3:04.36 | 251467 | 265302
24 | 58:57.28 | 2:43.55 | 265303 | 277582
Range status and errors
Selected range
Filename C:\temp\K617230 - Le Retour de la Paix\Le Retour de la Paix.wav
Peak level 99.9 %
Extraction speed 4.9 X
Range quality 99.9 %
Test CRC 32F7DAA2
Copy CRC 32F7DAA2
Copy OK
No errors occurred
AccurateRip summary
Track 1 accurately ripped (confidence 1) [06F0E40D] (AR v2)
Track 2 accurately ripped (confidence 1) [BE6A191B] (AR v2)
Track 3 accurately ripped (confidence 1) [0CA3538F] (AR v2)
Track 4 accurately ripped (confidence 1) [95D6EF11] (AR v2)
Track 5 accurately ripped (confidence 1) [4BFDB4F7] (AR v2)
Track 6 accurately ripped (confidence 1) [855511D5] (AR v2)
Track 7 accurately ripped (confidence 1) [4614EEAF] (AR v2)
Track 8 accurately ripped (confidence 1) [D148A9C7] (AR v2)
Track 9 accurately ripped (confidence 1) [CEB9ADB4] (AR v2)
Track 10 accurately ripped (confidence 1) [447A5F68] (AR v2)
Track 11 accurately ripped (confidence 1) [48733D90] (AR v2)
Track 12 accurately ripped (confidence 1) [1B3D531E] (AR v2)
Track 13 accurately ripped (confidence 1) [4F61C430] (AR v2)
Track 14 accurately ripped (confidence 1) [FF511296] (AR v2)
Track 15 accurately ripped (confidence 1) [B35365C0] (AR v2)
Track 16 accurately ripped (confidence 1) [CF6B2791] (AR v2)
Track 17 accurately ripped (confidence 1) [A5B79221] (AR v2)
Track 18 accurately ripped (confidence 1) [299B1289] (AR v2)
Track 19 accurately ripped (confidence 1) [B5B5FAFB] (AR v2)
Track 20 accurately ripped (confidence 1) [25D7D3B1] (AR v2)
Track 21 accurately ripped (confidence 1) [CF0869C7] (AR v2)
Track 22 accurately ripped (confidence 1) [0D0ED7EF] (AR v2)
Track 23 accurately ripped (confidence 1) [8D78333E] (AR v2)
Track 24 accurately ripped (confidence 1) [0E676C7A] (AR v2)
All tracks accurately ripped
End of status report
==== Log checksum F85215636C5A0DBDFDCD59924B8B2A573D9F4B9BA96F4C54EB87E94E734F9019 ====
[teatrix.ru].t20330.torrent 
Торрент: Зарегистрирован [ 2016-03-19 20:39 ] · E7EEC25C56A64E89518807A4F347D848F6272DB5

Скачать .torrent

Скачать

25 KB

Статус: проверено
Скачан: 0 раз
Размер: 303 MB
terms.php



Быстрый ответ

Имя:

      
Для отправки сообщений необходимо включить JavaScript
Показать сообщения:    

Текущее время: 03-Дек 14:38

Часовой пояс: UTC + 3


Вы можете начинать темы
Вы можете отвечать на сообщения
Вы не можете редактировать свои сообщения
Вы не можете удалять свои сообщения
Вы не можете голосовать в опросах
Вы не можете прикреплять файлы к сообщениям
Вы можете скачивать файлы