Мастера экрана. Борис Андреев [1971, Документальный, биография, DVB]


Статистика раздачи [Обновить пиров]
Размер:  495 MB   |    Зарегистрирован:  8 месяцев 21 день   |    Скачан:  0 раз

Полного источника не было: Никогда

Личеров:  1  [  0 KB/s  ]   Подробная статистика пиров
 
   
 
 
 

[Цитировать]

Мастера экрана. Борис Андреев- Год выпуска: 1971
Страна: СССР
Жанр: документальный, биография
Продолжительность: 00:27:52
Перевод: не требуется-Описание: Фильм из цикла «Мастера экрана», посвященный творчеству советского актера театра и кино, Народного артиста СССР Бориса Федоровича Андреева.-Доп. информация: производство Главной редакции кинопрограмм.-качество: DVB-С
Формат: MPEG-PS
Видео: MPEG2, 720x576@768x576 (4:3), 25 fps, 2244 Kbps
Аудио: MP2, 48 KHz, 2 ch, 192 Kbps-

MediaInfo

General
Complete name : D:\Мастера экрана. Борис Андреев (1971) [DVB].mpg
Format : MPEG-PS
File size : 495 MiB
Duration : 27mn 52s
Overall bit rate mode : Variable
Overall bit rate : 2 485 Kbps
Video
ID : 224 (0xE0)
Format : MPEG Video
Format version : Version 2
Format profile : Main@Main
Format settings, BVOP : Yes
Format settings, Matrix : Custom
Format settings, GOP : Variable
Format settings, picture st : Frame
Duration : 27mn 52s
Bit rate mode : Variable
Bit rate : 2 244 Kbps
Maximum bit rate : 15.0 Mbps
Width : 720 pixels
Height : 576 pixels
Display aspect ratio : 4:3
Frame rate : 25.000 fps
Standard : PAL
Color space : YUV
Chroma subsampling : 4:2:0
Bit depth : 8 bits
Scan type : Interlaced
Scan order : Top Field First
Compression mode : Lossy
Bits/(Pixel*Frame) : 0.216
Time code of first frame : 00:00:00:00
Time code source : Group of pictures header
GOP, Open/Closed : Open
Stream size : 447 MiB (90%)
Audio
ID : 192 (0xC0)
Format : MPEG Audio
Format version : Version 1
Format profile : Layer 2
Duration : 27mn 52s
Bit rate mode : Constant
Bit rate : 192 Kbps
Channel(s) : 2 channels
Sampling rate : 48.0 KHz
Compression mode : Lossy
Delay relative to video : -80ms
Stream size : 38.3 MiB (8%)

Скриншоты

[teatrix.ru].t20333.torrent 
Торрент: Зарегистрирован [ 2016-03-19 20:39 ] · 1FD541B5AB0E3E5C14B70069A0AA2BA525F26FE3

Скачать .torrent

Скачать

20 KB

Статус: проверено
Скачан: 0 раз
Размер: 495 MB
terms.php



Быстрый ответ

Имя:

      
Для отправки сообщений необходимо включить JavaScript
Показать сообщения:    

Текущее время: 10-Дек 15:49

Часовой пояс: UTC + 3


Вы можете начинать темы
Вы можете отвечать на сообщения
Вы не можете редактировать свои сообщения
Вы не можете удалять свои сообщения
Вы не можете голосовать в опросах
Вы не можете прикреплять файлы к сообщениям
Вы можете скачивать файлы