Чевенгур (Александр Дзекун) [1990 г., мистерия, TVRip] Саратовский академический драматический театр


 

[Цитировать]

Чевенгур (2 серии) Название театра: Саратовский академический драматический театр.
Год выпуска: 1990.
Жанр: мистерия.
Продолжительность: 01:12:24 + 01:41:43 (02:54:07).
Режиссер: Александр Дзекун.
Действующие лица и исполнители:
Чепурный - Геннадий Аредаков,
Прокопий Дванов - Сергей Сосновский,
Пиюся - Виктор Емельянов,
Жеев - Георгий Шляхтин,
Кирей - Александр Курицын,
Вековой - Владимир Мишанин,
Соня - Любовь Сосновская,
Копенкин - Евгений Виноградов,
Кеша - А. Улизко,
Мрачинский - В.Бейдин,
Председатель коммуны - В. Калисанов,
Старик - А. Галко,
Мать - О. Катаева,
Ребенок - Ю. Ридель,
Никиток - В. Ерофеев,
Командированный - В. Захаров.
О спектакле:
По мотивам романа Андрея Платонова.
Действие происходит где-то на юге России и охватывает период военного коммунизма и нэпа. Герой романа Александр Дванов, рано потерял отца, который утопился с мечтой о лучшей жизни после смерти. Герои романа оказываются в своеобразном заповеднике коммунизма - городке под названием Чевенгур. Жители города уверены в ближайшем наступлении коммунистического Рая.

Дополнительная информация:
Страна: СССР .
Выпущено: © Главная редакция литературно-художественных программ ЦТ.
Автор: Андрей Платонов.
Художник по костюмам: Е. Бочкова.
Музыкальное оформление: Ф. Аронса.
Оператор-постановщик: Григорий Булах.

Релиз

Качество видео:...TVRip
Формат:.................AVI
Видео:..688x528 (1.30:1), 25 fps, XviD MPEG-4 ~1647 kbps avg, 0.18 bit/pixel
Аудио:..48 kHz, MPEG Layer 3, 2 ch, ~128.00 kbps avg

Отчет MI

1-я серия
Общее
Полное имя : Chevengur_Saratovskij.dran.teatr.1990.XviD.TVRip.fenixclub\Chevengur_Saratovskij.dran.teatr.1990_1.ser.avi
Формат : AVI
Формат/Информация : Audio Video Interleave
Размер файла : 925 Мбайт
Продолжительность : 1 ч. 12 м.
Общий поток : 1786 Кбит/сек
Программа кодирования : VirtualDubModRus 1.5.10.2 (build 2542/release)
Библиотека кодирования : VirtualDub build 32842/release
Видео
Идентификатор : 0
Формат : MPEG-4 Visual
Профиль формата : Advanced Simple@L5
Параметр BVOP формата : 2
Параметр QPel формата : Нет
Параметр GMC формата : Без точки перехода
Параметр матрицы формата : Default (H.263)
Режим смешивания : Сжатый битовый поток
Идентификатор кодека : XVID
Идентификатор кодека/Подсказка : XviD
Продолжительность : 1 ч. 12 м.
Битрейт : 1648 Кбит/сек
Ширина : 688 пикселей
Высота : 528 пикселей
Соотношение сторон : 4:3
Частота кадров : 25,000 кадров/сек
Цветовое пространство : YUV
Субдискретизация насыщенности : 4:2:0
Битовая глубина : 8 бит
Тип развёртки : Прогрессивная
Метод сжатия : С потерями
Бит/(Пиксели*Кадры) : 0.181
Размер потока : 854 Мбайт (92%)
Библиотека кодирования : XviD 73
Аудио
Идентификатор : 1
Формат : MPEG Audio
Версия формата : Version 1
Профиль формата : Layer 3
Режим : Joint stereo
Расширение режима : MS Stereo
Идентификатор кодека : 55
Идентификатор кодека/Подсказка : MP3
Продолжительность : 1 ч. 12 м.
Вид битрейта : Постоянный
Битрейт : 128 Кбит/сек
Каналы : 2 канала
Частота : 48,0 КГц
Метод сжатия : С потерями
Размер потока : 66,3 Мбайт (7%)
Выравнивание : Разделение по промежуткам
Продолжительность промежутка : 40 мс. (1,00 видеокадр)
Время предзагрузки промежутка : 500 мс.
2-я серия
Общее
Полное имя : Chevengur_Saratovskij.dran.teatr.1990.XviD.TVRip.fenixclub\Chevengur_Saratovskij.dran.teatr.1990_2.ser.avi
Формат : AVI
Формат/Информация : Audio Video Interleave
Размер файла : 1,27 Гбайт
Продолжительность : 1 ч. 41 м.
Общий поток : 1786 Кбит/сек
Программа кодирования : VirtualDubModRus 1.5.10.2 (build 2542/release)
Библиотека кодирования : VirtualDub build 32842/release
Видео
Идентификатор : 0
Формат : MPEG-4 Visual
Профиль формата : Advanced Simple@L5
Параметр BVOP формата : 2
Параметр QPel формата : Нет
Параметр GMC формата : Без точки перехода
Параметр матрицы формата : Default (H.263)
Режим смешивания : Сжатый битовый поток
Идентификатор кодека : XVID
Идентификатор кодека/Подсказка : XviD
Продолжительность : 1 ч. 41 м.
Битрейт : 1648 Кбит/сек
Ширина : 688 пикселей
Высота : 528 пикселей
Соотношение сторон : 4:3
Частота кадров : 25,000 кадров/сек
Цветовое пространство : YUV
Субдискретизация насыщенности : 4:2:0
Битовая глубина : 8 бит
Тип развёртки : Прогрессивная
Метод сжатия : С потерями
Бит/(Пиксели*Кадры) : 0.181
Размер потока : 1,17 Гбайт (92%)
Библиотека кодирования : XviD 73
Аудио
Идентификатор : 1
Формат : MPEG Audio
Версия формата : Version 1
Профиль формата : Layer 3
Режим : Joint stereo
Расширение режима : MS Stereo
Идентификатор кодека : 55
Идентификатор кодека/Подсказка : MP3
Продолжительность : 1 ч. 41 м.
Вид битрейта : Постоянный
Битрейт : 128 Кбит/сек
Каналы : 2 канала
Частота : 48,0 КГц
Метод сжатия : С потерями
Размер потока : 93,1 Мбайт (7%)
Выравнивание : Разделение по промежуткам
Продолжительность промежутка : 40 мс. (1,00 видеокадр)
Время предзагрузки промежутка : 500 мс.

Скриншоты


Альтернативный хост





Показать сообщения:    

Текущее время: 11-Дек 07:14

Часовой пояс: UTC + 3


Вы не можете начинать темы
Вы не можете отвечать на сообщения
Вы не можете редактировать свои сообщения
Вы не можете удалять свои сообщения
Вы не можете голосовать в опросах
Вы не можете прикреплять файлы к сообщениям
Вы не можете скачивать файлы