Натали Делон: интервью к фильму Самурай / Cinema: Nathalie Delon - Le Samourai (Фредерик Россиф / Frederic Rossif) [25.04.1968, документальный, кинематограф, DVDRip-AVC] Original (Fre) + Sub (Rus)


Статистика раздачи [Обновить пиров]
Размер:  32 MB   |    Зарегистрирован:  8 месяцев 14 дней   |    Скачан:  0 раз

Полного источника не было: Никогда

 
   
 
 
 

[Цитировать]

Натали Делон: интервью к фильму "Самурай"
Cinéma: Nathalie Delon - Le Samouraï- Дата/Год выпуска: 25.04.1968
Страна: Франция
Жанр: документальный, кинематограф
Продолжительность: 00:02:37
Перевод: Субтитры
Русские субтитры: естьФормат субтитров: softsub (SRT)
Доп. информация о субтитрах: перевод Клеопатрa VII , тайминг - Михаил Васильев, инициатор Aleks Punk
Оригинальная аудиодорожка: французский
Режиссер: Фредерик Россиф / Frédéric Rossif
Описание: Натали Делон пришла в кинематограф благодаря Алену Делону, с которым она находилась в браке в 1964—1968 годах. Их первый совместный фильм "Самурай", снятый Жан-Пьером Мельвилем, пользовался большим успехом.
Доп. информация: Бонус к изданию фильма "Самурай" The Criterion Collection DVD9. За предоставленный материал благодарность Aleks Punk.

качество: DVDRip-AVC
формат: MKV
Видео: AVC (H.264), 624x464 (4:3), 23.976 fps, ~1500 kbps avg, 0.216 bit/pixel
Аудио: AC3, 2 ch, 48 kHz, ~192.00 kbps avg

Пример субтитров

1
00:00:00,420 --> 00:00:08,411
Натали Делон в передаче "Кино"
от 25 апреля 1968 года
2
00:00:09,112 --> 00:00:15,462
По словам Саша Гитри есть актеры, которым
не суждено иметь фамилию, — только имя.

3
00:00:15,562 --> 00:00:18,225
В вашем случае, Натали Делон,
что Вы думаете об этом выражении?

4
00:00:21,308 --> 00:00:24,720
Сделать себе фамилию легко, скажем,
это легко и тяжело одновременно.
5
00:00:25,122 --> 00:00:29,441
В конце концов, у нас нет никаких поблажек,
если что-то не получилось,
6
00:00:29,541 --> 00:00:36,254
делая себе фамилию,
а создавать имя можно дольше и легче.
7
00:00:37,502 --> 00:00:43,277
"Частный урок" это ваш второй фильм
после "Самурая". Что он значит для Вас?

8
00:00:43,399 --> 00:00:47,743
"Частный урок" это очень и очень
важный опыт для меня,
9
00:00:47,843 --> 00:00:58,189
так как, мое мнение, без сомнения, будет учитываться,
то есть, независимо от ответа, да или нет,
мне хочется продолжать эту работу.
10
00:00:58,493 --> 00:01:06,181
Мы имеем ярко выраженную тенденцию
классифицировать актеров по готовым формулировкам.

11
00:01:06,281 --> 00:01:14,260
не думаете ли Вы, что роль, которую Вы играете
в настоящий момент, дает вам
достаточно широкий диапазон высказываний

12
00:01:14,360 --> 00:01:17,788
и доказательств для того, чтобы потом не говорили:
"Натали Делон - это то или это"?

13
00:01:18,132 --> 00:01:32,756
Я стараюсь играть как можно естественнее,
с легкостью. Что для актрисы гораздо сложнее,
чем воплощать комплексные роли.
14
00:01:33,426 --> 00:01:39,878
Я хочу сказать, это не комедийная роль
и не драматическая роль,
а значит, я должна вести себя естественно,
15
00:01:40,150 --> 00:01:49,402
а это не простая задача, так как в мире
нет ничего сложнее, чем избавиться от скромности
и пытаться быть самой собой перед камерой.
16
00:01:49,502 --> 00:01:59,184
Когда мы Вас увидели в "Самурае",
было трудно представить Вас легком стиле.

17
00:01:59,284 --> 00:02:06,313
Я представляю себя как в легких ролях,
так и в ролях более ярких или очень трудных.
18
00:02:06,413 --> 00:02:12,209
То, что мне будет тяжелее всего даваться -
это роль, где мне нужно будет сохранять
равномерный тон.
19
00:02:12,540 --> 00:02:15,914
Этой ролью Вы рисковали всем?
20
00:02:17,001 --> 00:02:20,244
Да, но я повторюсь,
что это очень важно для меня
21
00:02:20,344 --> 00:02:24,615
Вы никогда не намеревались играть
под другим именем нежели Делон?

MediaInfo

Общее
Уникальный идентификатор : 195016127926103966727577380875897365721 (0x92B6BD7355F24927BF4606A01BB364D9)
Полное имя : E:\My Torrents 2\[apreder]Cinema_Nathalie_Delon_Le_Samourai(25.04.1968)DVDRip.mkv
Формат : Matroska
Версия формата : Version 2
Размер файла : 31,7 Мбайт
Продолжительность : 2 м. 37 с.
Общий поток : 1694 Кбит/сек
Дата кодирования : UTC 2015-02-10 16:38:02
Программа кодирования : mkvmerge v7.6.0 ('Garden of Dreams') 64bit built on Feb 8 2015 13:04:34
Библиотека кодирования : libebml v1.3.1 + libmatroska v1.4.2
Видео
Идентификатор : 1
Формат : AVC
Формат/Информация : Advanced Video Codec
Профиль формата : High@L4.1
Параметр CABAC формата : Да
Параметр ReFrames формата : 16 кадров
Идентификатор кодека : V_MPEG4/ISO/AVC
Продолжительность : 2 м. 37 с.
Битрейт : 1500 Кбит/сек
Ширина : 624 пикселя
Высота : 464 пикселя
Соотношение сторон : 4:3
Режим частоты кадров : Постоянный
Частота кадров : 23,976 кадра/сек
Цветовое пространство : YUV
Субдискретизация насыщенности : 4:2:0
Битовая глубина : 8 бит
Тип развёртки : Прогрессивная
Бит/(Пиксели*Кадры) : 0.216
Размер потока : 27,5 Мбайт (87%)
Библиотека кодирования : x264 core 144 r2525 40bb568
Настройки программы : cabac=1 / ref=16 / deblock=1:-1:-1 / analyse=0x3:0x133 / me=umh / subme=10 / psy=1 / psy_rd=1.00:0.15 / mixed_ref=1 / me_range=24 / chroma_me=1 / trellis=2 / 8x8dct=1 / cqm=0 / deadzone=21,11 / fast_pskip=1 / chroma_qp_offset=-3 / threads=6 / lookahead_threads=1 / sliced_threads=0 / nr=0 / decimate=1 / interlaced=0 / bluray_compat=0 / constrained_intra=0 / bframes=8 / b_pyramid=2 / b_adapt=2 / b_bias=0 / direct=3 / weightb=1 / open_gop=0 / weightp=2 / keyint=240 / keyint_min=23 / scenecut=40 / intra_refresh=0 / rc_lookahead=60 / rc=2pass / mbtree=1 / bitrate=1500 / ratetol=1.0 / qcomp=0.60 / qpmin=0 / qpmax=69 / qpstep=4 / cplxblur=20.0 / qblur=0.5 / vbv_maxrate=62500 / vbv_bufsize=78125 / nal_hrd=none / filler=0 / ip_ratio=1.40 / aq=1:1.00
Default : Да
Forced : Нет
Аудио
Идентификатор : 2
Формат : AC-3
Формат/Информация : Audio Coding 3
Расширение режима : CM (complete main)
Параметр Endianness формата : Big
Идентификатор кодека : A_AC3
Продолжительность : 2 м. 37 с.
Вид битрейта : Постоянный
Битрейт : 192 Кбит/сек
Каналы : 1 канал
Расположение каналов : Front: C
Частота : 48,0 КГц
Битовая глубина : 16 бит
Метод сжатия : С потерями
Размер потока : 3,60 Мбайт (11%)
Язык : French
Default : Да
Forced : Нет
Текст
Идентификатор : 3
Формат : UTF-8
Идентификатор кодека : S_TEXT/UTF8
Идентификатор кодека/Информация : UTF-8 Plain Text
Язык : Russian
Default : Да
Forced : Нет

Скриншоты

Резервные скриншоты

-[2'115]
[teatrix.ru].t20337.torrent 
Торрент: Зарегистрирован [ 2016-03-19 20:39 ] · 6D35D40A7403653FA0FE80AFFC055971F0D6F439

Скачать .torrent

Скачать

10 KB

Статус: проверено
Скачан: 0 раз
Размер: 32 MB
terms.php



Показать сообщения:    

Текущее время: 03-Дек 01:17

Часовой пояс: UTC + 3


Вы не можете начинать темы
Вы не можете отвечать на сообщения
Вы не можете редактировать свои сообщения
Вы не можете удалять свои сообщения
Вы не можете голосовать в опросах
Вы не можете прикреплять файлы к сообщениям
Вы можете скачивать файлы