[TR24][SM][OF] Schumann & Janacek- Kinderszenen and Waldszenen & On the overgrown path I / Marc-Andre Hamelin - 2014 (Classical)


Статистика раздачи [Обновить пиров]
Размер:  1.11 GB   |    Зарегистрирован:  8 месяцев 22 дня   |    Скачан:  0 раз

Полного источника не было: 2 месяца 15 дней

 
   
 
 
 

[Цитировать]

Schumann & Janacek - Kinderszenen and Waldszenen & On the overgrown path I / Marc-Andre Hamelin
Формат записи/Источник записи: [TR24][SM][OF]
Наличие водяных знаков: Нет
Издание: CDA68030
Год издания/переиздания диска: 2014
Жанр: Classical
Издатель(лейбл): Hyperion Records
Продолжительность: 01:14:26
Наличие сканов в содержимом раздачи: Да
Треклист:
Leoš Janáček (1854-1928)
Po zarostlém chodníčku 'On the overgrown path' JW VIII/17
1 Book 1 No 1, Our evenings: Naše večery [4'02]
2 Book 1 No 2, A blown-away leaf: Lístek odvanutý [3'13]
3 Book 1 No 3, Come with us!: Pojďte namí! [1'43]
4 Book 1 No 4, The Frýdek Madonna: Frýdecká Panna Maria [3'17]
5 Book 1 No 5, They chattered like swallows: Štěbetaly jak laštovičy [2'51]
6 Book 1 No 6, Words fail!: Nelze domluvit! [2'16]
7 Book 1 No 7, Good night!: Dobrou noc! [3'33]
8 Book 1 No 8, Unutterable anguish: Tak neskonale úzko [3'49]
9 Book 1 No 9, In tears: V pláči [3'34]
10 Book 1 No 10, The barn owl has not flown away!: Sýček neodletěl! [3'46]
Robert Schumann (1810-1856)
Waldszenen Op 82
11 Eintritt [2'28]
12 Jäger auf der Lauer [1'25]
13 Einsame Blumen [2'25]
14 Verrufene Stelle [2'42]
15 Freundliche Landschaft [1'10]
16 Herberge [2'07]
17 Vogel als Prophet [3'46]
18 Jagdlied [2'25]
19 Abschied [4'07]
Kinderszenen Op 15
20 Von fremden Ländern und Menschen [1'59]
21 Kuriose Geschichte [1'01]
22 Hasche-Mann [0'33]
23 Bittendes Kind [1'08]
24 Glückes genug [1'12]
25 Wichtige Begebenheit [0'56]
26 Träumerei [2'51]
27 Am Kamin [0'54]
28 Ritter vom Steckenpferd [0'38]
29 Fast zu ernst [1'56]
30 Fürchtenmachen [1'36]
31 Kind im Einschlummern [2'13]
32 Der Dichter spricht [2'50]
Контейнер: FLAC (*.flac)
Тип рипа: tracks
Разрядность: 24/96
Формат: WAV (flac.ape.wv)
Количество каналов: 2.0
Marc-André Hamelin, piano
http://www.hyperion-records.co.uk/dc.asp?dc=D_CDA68030

Dynamic Range Meter

foobar2000 1.2.6 / Dynamic Range Meter 1.1.1
log date: 2015-02-10 22:58:42
--------------------------------------------------------------------------------
Analyzed: Marc-André Hamelin / Schumann - Kinderszenen, Waldszenen / Janacek - On the overgrown path I
--------------------------------------------------------------------------------
DR Peak RMS Duration Track
--------------------------------------------------------------------------------
DR15 -4.04 dB -25.64 dB 4:01 01-'On the overgrown path', JW VIII-17, Book 1 - 1. Our evenings- Nase vecery
DR14 -3.38 dB -24.77 dB 3:13 02-'On the overgrown path', JW VIII-17, Book 1 - 2. A blown-away leaf- Listek odvanuty
DR14 -4.65 dB -27.53 dB 1:43 03-'On the overgrown path', JW VIII-17, Book 1 - 3. Come with us- Pojďte nami
DR17 -3.32 dB -26.12 dB 3:17 04-'On the overgrown path', JW VIII-17, Book 1 - 4. The Frydek Madonna- Frydecka Panna Maria
DR13 -5.50 dB -25.06 dB 2:51 05-'On the overgrown path', JW VIII-17, Book 1 - 5. They chattered like swallows- Stebetaly jak lastovicy
DR16 -2.45 dB -25.52 dB 2:16 06-'On the overgrown path', JW VIII-17, Book 1 - 6. Words fail- Nelze domluvit
DR15 -4.35 dB -26.15 dB 3:33 07-'On the overgrown path', JW VIII-17, Book 1 - 7. Good night- Dobrou noc
DR15 -2.63 dB -24.78 dB 3:49 08-'On the overgrown path', JW VIII-17, Book 1 - 8. Unutterable anguish- Tak neskonale uzko
DR16 -6.94 dB -29.86 dB 3:34 09-'On the overgrown path', JW VIII-17, Book 1 - 9. In tears- V placi
DR15 -2.95 dB -24.12 dB 3:46 10-'On the overgrown path', JW VIII-17, Book 1 - 10. The barn owl has not flown away- Sycek neodletel
DR14 -8.48 dB -27.45 dB 2:28 11-Waldszenen, Op 82 - 1. Eintritt
DR12 -1.15 dB -17.81 dB 1:25 12-Waldszenen, Op 82 - 2. Jager auf der Lauer
DR13 -9.41 dB -28.86 dB 2:25 13-Waldszenen, Op 82 - 3. Einsame Blumen
DR16 -2.43 dB -24.93 dB 2:42 14-Waldszenen, Op 82 - 4. Verrufene Stelle
DR11 -3.95 dB -21.38 dB 1:10 15-Waldszenen, Op 82 - 5. Freundliche Landschaft
DR13 -3.45 dB -22.11 dB 2:07 16-Waldszenen, Op 82 - 6. Herberge
DR15 -8.54 dB -30.13 dB 3:46 17-Waldszenen, Op 82 - 7. Vogel als Prophet
DR12 -0.31 dB -15.64 dB 2:25 18-Waldszenen, Op 82 - 8. Jagdlied
DR13 -5.98 dB -26.55 dB 4:07 19-Waldszenen, Op 82 - 9. Abschied
DR13 -13.53 dB -32.07 dB 1:59 20-Kinderszenen, Op 15 - 1. Von fremden Landern und Menschen
DR11 -8.25 dB -23.02 dB 1:01 21-Kinderszenen, Op 15 - 2. Kuriose Geschichte
DR11 -5.50 dB -20.09 dB 0:33 22-Kinderszenen, Op 15 - 3. Hasche-Mann
DR11 -14.42 dB -32.88 dB 1:08 23-Kinderszenen, Op 15 - 4. Bittendes Kind
DR11 -7.41 dB -22.33 dB 1:12 24-Kinderszenen, Op 15 - 5. Gluckes genug
DR13 -2.49 dB -18.38 dB 0:56 25-Kinderszenen, Op 15 - 6. Wichtige Begebenheit
DR13 -12.81 dB -32.69 dB 2:51 26-Kinderszenen, Op 15 - 7. Traumerei
DR12 -6.44 dB -22.18 dB 0:54 27-Kinderszenen, Op 15 - 8. Am Kamin
DR10 -1.42 dB -15.64 dB 0:38 28-Kinderszenen, Op 15 - 9. Ritter vom Steckenpferd
DR13 -11.33 dB -29.42 dB 1:56 29-Kinderszenen, Op 15 - 10. Fast zu ernst
DR15 -5.91 dB -26.21 dB 1:36 30-Kinderszenen, Op 15 - 11. Furchtenmachen
DR14 -16.24 dB -34.24 dB 2:13 31-Kinderszenen, Op 15 - 12. Kind im Einschlummern
DR14 -12.51 dB -35.49 dB 2:48 32-Kinderszenen, Op 15 - 13. Der Dichter spricht
--------------------------------------------------------------------------------
Number of tracks: 32
Official DR value: DR13
Samplerate: 96000 Hz
Channels: 2
Bits per sample: 24
Bitrate: 1987 kbps
Codec: FLAC
================================================================================
[teatrix.ru].t20338.torrent 
Торрент: Зарегистрирован [ 2016-03-19 20:39 ] · AB71DFDBE7EE3CF46FF776914F0B93F8151DD6FB

Скачать .torrent

Скачать

15 KB

Статус: проверено
Скачан: 0 раз
Размер: 1.11 GB
terms.php



Быстрый ответ

Имя:

      
Для отправки сообщений необходимо включить JavaScript
Показать сообщения:    

Текущее время: 10-Дек 21:30

Часовой пояс: UTC + 3


Вы можете начинать темы
Вы можете отвечать на сообщения
Вы не можете редактировать свои сообщения
Вы не можете удалять свои сообщения
Вы не можете голосовать в опросах
Вы не можете прикреплять файлы к сообщениям
Вы можете скачивать файлы