Рихард Вагнер - Парсифаль (Йонас Кауфман) / Richard Wagner - Parsifal (Jonas Kaufmann) Даниэль Гатти / Daniele Gatti (Franсois Girard) [2013, Opera, 2xDVD9]


 

[Цитировать]

Richard Wagner - ParsifalРихард ВАГНЕР - ПАРСИФАЛЬ
______________________________________________________
Год выпуска: 2013
Лейбл: Sony Classical
Страна-производитель: US
Жанр: Opera
Продолжительность: 04:51:53
Язык: German
Субтитры: English, French, German, Spanish, Italian
Русские субтитры : http://sub-opera.narod.ru/
Режиссер: Franсois Girard
Исполнители:
Jonas Kaufmann - Pasifal
Evgeny Nikitin - Kligsor
Rene Pape - Gurnemanz
Ryan Speedo Green - Second Knight of the Grail
Lauren McNeese - Second Sentry
Jennifer Forni - First Sentry
Mark Schowalter - First Knight of the Grail
Katarina Dalayman - Kundry
Peter Mattei - Amfortas
Andrew Stenson - Third Sentry
Mario Chang - Fourth Sentry
Rúni Brattaberg - Titurel
Maria Zifchak - A Voice
Evgeny Nikitin - Kligsor
Metropolitan Opera Orchestra
Daniele Gatti, cond.
Качество видео: 2xDVD9
Формат/Контейнер: DVDVideo
Видео кодек: MPEG1
Аудио кодек: PCM, AC3
Видео поток: NTSC Widescreen, VBR, 720x480, 29,970 fps.
Аудио поток: LPCM 2.0, AC3 448 kbps 6 ch
Доп. информация: Буклет в составе раздачи

Скриншоты

MediaInfo

General
Complete name                            : Wagner - PARSIFAL (Gatti, Met 2013) 2x\DVD 1\VIDEO_TS\VTS_01_7.VOB
Format                                   : MPEG-PS
File size                                : 721 MiB
Duration                                 : 13mn 24s
Overall bit rate mode                    : Variable
Overall bit rate                         : 7 514 Kbps
[br]
Video
ID                                       : 224 (0xE0)
Format                                   : MPEG Video
Format version                           : Version 2
Format profile                           : Main@Main
Format settings, BVOP                    : Yes
Format settings, Matrix                  : Default
Format settings, GOP                     : M=3, N=15
Duration                                 : 13mn 24s
Bit rate mode                            : Variable
Bit rate                                 : 5 380 Kbps
Maximum bit rate                         : 7 800 Kbps
Width                                    : 720 pixels
Height                                   : 480 pixels
Display aspect ratio                     : 16:9
Frame rate                               : 29.970 fps
Standard                                 : NTSC
Color space                              : YUV
Chroma subsampling                       : 4:2:0
Bit depth                                : 8 bits
Scan type                                : Interlaced
Scan order                               : Bottom Field First
Compression mode                         : Lossy
Bits/(Pixel*Frame)                       : 0.519
Time code of first frame                 : 11:42:11;22
Time code source                         : Group of pictures header
Stream size                              : 516 MiB (72%)
Color primaries                          : BT.601 NTSC
Transfer characteristics                 : BT.601
Matrix coefficients                      : BT.601
[br]
Audio #1
ID                                       : 189 (0xBD)-129 (0x81)
Format                                   : AC-3
Format/Info                              : Audio Coding 3
Mode extension                           : CM (complete main)
Format settings, Endianness              : Big
Muxing mode                              : DVD-Video
Duration                                 : 13mn 24s
Bit rate mode                            : Constant
Bit rate                                 : 448 Kbps
Channel(s)                               : 6 channels
Channel positions                        : Front: L C R, Side: L R, LFE
Sampling rate                            : 48.0 KHz
Bit depth                                : 16 bits
Compression mode                         : Lossy
Delay relative to video                  : -200ms
Stream size                              : 43.0 MiB (6%)
[br]
Audio #2
ID                                       : 189 (0xBD)-160 (0xA0)
Format                                   : PCM
Format settings, Endianness              : Big
Format settings, Sign                    : Signed
Muxing mode                              : DVD-Video
Duration                                 : 13mn 24s
Bit rate mode                            : Constant
Bit rate                                 : 1 536 Kbps
Channel(s)                               : 2 channels
Sampling rate                            : 48.0 KHz
Bit depth                                : 16 bits
Delay relative to video                  : -260ms
Stream size                              : 147 MiB (20%)
[br]
Menu

Синопсис

Однажды король Монсальвата, Амфортас, был смертельно ранен колдуном Клингзором. По священному приданию спасти его сможет только «чистый простец», который прозреет через раскаяние и сочувствие. Король был ранен по вине Кундри, девушки-колдуньи, находящейся во власти Клингзора.
Она раскаялась в содеянном и искренне стремилась помочь. Но волшебный бальзам, привезенный ею издалека, даже не облегчил страданий Амфортаса. Тем временем в лесу был найден юноша, нарушивший закон. Он подстрелил лебедя, не зная, что находится на священной земле, где охота под запретом: ведь любое животное также священно. Кундри узнает в нем Парсифаля, сына королевы Герцелойды. Мать растила мальчика в неведении, стремясь уберечь его от участи отца – короля Гандина, который погиб на поле битвы. У рыцарей появляется надежда на исцеление короля Монсальвата – ведь они наконец нашли «чистого простеца», который, возможно, сможет исцелись страдающего от болезненной раны Амфортаса.
Злой колдун Клингзор прознал о Парсифале. Боясь встречи с ним, он приказывает Кундри соблазнить юношу. Она сопротивляется, но не в силах перебороть власть Клингзора. Девушка раскрывает Парсифалю тайну (о том, кто он), говорит о смерти его матери и пытается обманом добиться поцелуя: но вдруг юноша прозревает. Он отвергает девушку, а она, проклиная его, зовет Клингзора. Колдун бросает в Парсифаля священное копье, а оно застывает над его головой. Молодой храбрец перехватывает орудие и чертит им крест. Заклятие снято: сад злого колдуна исчез, Кундри освобождена от власти Клингзора. Юноша спешит к королю Амфортасу.
Парсифаля посвящают в короли Грааля (ведь недавно скончался Титурель, предыдущий король святыни). Юноша исцеляет рану Амфортаса священным копьем и снимает покрывало со святого Грааля, как вдруг чаша засияла в его руках. Освобожденная от своего проклятия, Кундри умирает.



Показать сообщения:    

Текущее время: 10-Дек 17:45

Часовой пояс: UTC + 3


Вы не можете начинать темы
Вы не можете отвечать на сообщения
Вы не можете редактировать свои сообщения
Вы не можете удалять свои сообщения
Вы не можете голосовать в опросах
Вы не можете прикреплять файлы к сообщениям
Вы не можете скачивать файлы