[TR24][OF] Александр Скрябин / Scriabin: Complete Poemes - Garrick Ohlsson, piano - 2015 (Classical, Piano)


Статистика раздачи [Обновить пиров]
Размер:  1.13 GB   |    Зарегистрирован:  10 месяцев 2 дня   |    Скачан:  1 раз

Полного источника не было: 2 месяца 9 дней

 
   
 
 
 

[Цитировать]

Scriabin: Complete Poèmes / Garrick Ohlsson, piano
Формат записи/Источник записи: [TR24][OF]
Наличие водяных знаков: Нет
Год издания/переиздания диска: 2015
Жанр: Classical, Piano
Издатель(лейбл): Hyperion
Продолжительность: 01:19:31

Треклист

Alexander Scriabin / Александр Скрябин (1872-1915)
Deux poèmes Op 32:
1. No 1 in F sharp major: Andante cantabile [03'21];
2. No 2 in D major: Allegro, con eleganza, con fiducia [01'40];
3. Poème tragique Op 34 [03'28];
4. Poème satanique Op 36 [06'32];
5. Poème Op 41 [04'46];
Deux poèmes Op 44:
6. Lento [01'27];
7. Moderato [01'16];
8. Feuillet d'album: Andante piacevole (No 1 of Trois morceaux, Op 45) [01'08];
9. Poème fantasque:Presto (No 2 of Trois morceaux, Op 45) [00'30];
10. Scherzo Op 46 [01'29];
11. Quasi valse Op 47 [01'34];
12. Rêverie: Con finezza (No 3 of Trois morceaux, Op 49) [01'25];
13. Fragilité: Allegretto (No 1 of Quatre morceaux, Op 51) [02'32];
14. Poème ailé (No 3 of Quatre morceaux, Op 51) [01'18];
15. Danse languide (No 4 of Quatre morceaux, Op 51) [01'42];
Trois morceaux Op 52:
16. Poème: Lento [02'35];
17. Énigme: Étrange, capricieusement [01'10];
18. Poème languide: Pas vite [01'23];
19. Ironies: Vivo, scherzoso (No 2 of Quatre morceaux, Op 56) [02'17];
20. Nuaces: Fondu, velouté (No 3 of Quatre morceaux, Op 56) [02'06];
Deux morceaux Op 57:
21. Désir [02'17];
22. Caresse dansée [02'07];
23. Feuillet d'album Op 58 [01'11];
24. Poème: Allegretto, avec grâce et douceur (No 1 of Deux morceaux, Op 59) [01'59];
25. Poème-nocturne Op 61 [06'46];
Deux poèmes Op 63:
26. Masque: Allegretto [01'27];
27. Étrangeté: Gracieux, délicat [02'00];
Deux poèmes Op 69:
28. Allegretto [02'10];
29. Allegretto [01'35];
Deux poèmes Op 71:
30. Fantastique [01'43];
31. En rêvant, avec une grande douceur [01'53];
32. Vers la flamme 'Poème' Op 72 [05'47];
Deux danses Op 73:
33. Guirlandes: Avec une grâce languissante [02'59];
34. Flammes sombres: Avec une grâce dolente [02'13].

Dynamic Range Meter

foobar2000 1.3.6 / Замер динамического диапазона (DR) 1.1.1
Дата отчёта: 2015-08-03 19:49:09
--------------------------------------------------------------------------------
Анализ: Garrick Ohlsson / Scriabin: Complete Poemes
--------------------------------------------------------------------------------
DR Пики RMS Продолжительность трека
--------------------------------------------------------------------------------
DR13 -8.50 дБ -29.44 дБ 3:21 01-Deux poemes, Op 32 - No 1 in F sharp major. Andante cantabile
DR12 -2.79 дБ -19.91 дБ 1:41 02-Deux poemes, Op 32 - No 2 in D major. Allegro, con eleganza, con fiducia
DR13 -2.37 дБ -19.72 дБ 3:28 03-Poeme tragique, Op 34
DR14 -1.98 дБ -21.43 дБ 6:32 04-Poeme satanique, Op 36
DR13 -8.96 дБ -28.75 дБ 4:46 05-Poeme, Op 41
DR10 -16.36 дБ -33.03 дБ 1:27 06-Deux poemes, Op 44 - No 1. Lento
DR12 -4.18 дБ -22.66 дБ 1:17 07-Deux poemes, Op 44 - No 2. Moderato
DR10 -13.45 дБ -30.44 дБ 1:08 08-Trois morceaux, Op 45 - No 1. Feuillet d'album. Andante piacevole
DR9 -6.38 дБ -25.24 дБ 0:30 09-Trois morceaux, Op 45 - No 2. Poeme fantasque. Presto
DR14 -4.14 дБ -22.81 дБ 1:29 10-Scherzo, Op 46
DR12 -6.16 дБ -25.33 дБ 1:33 11-Quasi valse, Op 47
DR11 -19.51 дБ -35.50 дБ 1:25 12-Trois morceaux, Op 49 - No 3. Reverie. Con finezza
DR13 -12.35 дБ -30.29 дБ 2:32 13-Quatre morceaux, Op 51 - No 1. Fragilite. Allegretto
DR14 -5.82 дБ -29.40 дБ 1:19 14-Quatre morceaux, Op 51 - No 3. Poeme aile
DR12 -13.79 дБ -34.16 дБ 1:42 15-Quatre morceaux, Op 51 - No 4. Danse languide
DR15 -8.77 дБ -30.78 дБ 2:35 16-Trois morceaux, Op 52 - No 1. Poeme. Lento
DR11 -9.25 дБ -27.60 дБ 1:11 17-Trois morceaux, Op 52 - No 2. Enigme. Etrange, capricieusement
DR12 -11.14 дБ -31.80 дБ 1:23 18-Trois morceaux, Op 52 - No 3. Poeme languide. Pas vite
DR15 -5.22 дБ -26.26 дБ 2:17 19-Quatre morceaux, Op 56 - No 2. Ironies. Vivo, scherzoso
DR12 -21.96 дБ -39.12 дБ 2:06 20-Quatre morceaux, Op 56 - No 3. Nuaces. Fondu, veloute
DR13 -17.89 дБ -36.57 дБ 2:17 21-Deux morceaux, Op 57 - No 1. Desir
DR13 -17.12 дБ -35.65 дБ 2:07 22-Deux morceaux, Op 57 - No 2. Caresse dansee
DR11 -17.47 дБ -34.00 дБ 1:10 23-Feuillet d'album, Op 58
DR12 -15.25 дБ -33.18 дБ 1:59 24-Deux morceaux, Op 59 - No 1. Poeme. Allegretto, avec grace et douceur
DR14 -5.21 дБ -26.56 дБ 6:47 25-Poeme-nocturne, Op 61
DR10 -16.60 дБ -35.79 дБ 1:27 26-Deux poemes, Op 63 - No 1. Masque. Allegretto
DR15 -4.16 дБ -29.70 дБ 2:00 27-Deux poemes, Op 63 - No 2. Etrangete. Gracieux, delicat
DR12 -14.02 дБ -33.28 дБ 2:09 28-Deux poemes, Op 69 - No 1. Allegretto
DR16 -8.03 дБ -28.19 дБ 1:35 29-Deux poemes, Op 69 - No 2. Allegretto
DR15 -3.05 дБ -23.65 дБ 1:43 30-Deux poemes, Op 71 - No 1. Fantastique
DR13 -8.85 дБ -27.87 дБ 1:53 31-Deux poemes, Op 71 - No 2. En revant, avec une grande douceur
DR13 -3.77 дБ -22.28 дБ 5:47 32-Vers la flamme 'Poeme', Op 72
DR13 -12.76 дБ -32.50 дБ 2:59 33-Deux danses, Op 73 - No 1. Guirlandes. Avec une grace languissante
DR13 -4.09 дБ -22.82 дБ 2:13 34-Deux danses, Op 73 - No 2. Flammes sombres. Avec une grace dolente
--------------------------------------------------------------------------------
Количество треков: 34
Реальные значения DR: DR13
Частота: 96000 Гц
Каналов: 2
Разрядность: 24
Битрейт: 2022 кбит/с
Кодек: FLAC
================================================================================
Контейнер: FLAC (*.flac)
Тип рипа: tracks
Разрядность: 24/96
Количество каналов: 2.0
Источник: Hyperion Records
[teatrix.ru].t20345.torrent 
Торрент: Зарегистрирован [ 2016-03-19 20:39 ] · 5654C8186A30BC35E6CA198D763E2EE8769AE17F

Скачать .torrent

Скачать

15 KB

Статус: проверено
Скачан: 1 раз
Размер: 1.13 GB
terms.php



Быстрый ответ

Имя:

      
Для отправки сообщений необходимо включить JavaScript
Показать сообщения:    

Текущее время: 22-Янв 04:45

Часовой пояс: UTC + 3


Вы можете начинать темы
Вы можете отвечать на сообщения
Вы не можете редактировать свои сообщения
Вы не можете удалять свои сообщения
Вы не можете голосовать в опросах
Вы не можете прикреплять файлы к сообщениям
Вы можете скачивать файлы