[TR24][OF] Johannes Brahms - Works for Solo Piano, Volume 3 - Barry Douglas - 2014 (Classical, Piano)


Статистика раздачи [Обновить пиров]
Размер:  983 MB   |    Зарегистрирован:  8 месяцев 17 дней   |    Скачан:  1 раз

Полного источника не было: 1 месяц 1 день

 
   
 
 
 

[Цитировать]

Johannes Brahms
Works for Solo Piano, Volume 3
Barry Douglas
- Год издания: 2014
Жанр: Classical, Piano
Издатель(лейбл): Chandos
Продолжительность: 01:07:25
Наличие сканов: Sleeve, Digital Booklet
- -
Johannes Brahms (1833 - 1897)
16 Waltzes, Op. 39 (1865; Austria)
01. No. 1 in B Major - Tempo giusto (0:49)
02. No. 2 in E Major (1:17)
03. No. 3 in G-Sharp Minor (1:05)
04. No. 4 in E Minor - Poco sostenuto (1:32)
05. No. 5 in E Major - Grazioso (1:10)
06. No. 6 in C-Sharp Major - Vivace (1:04)
07. No. 7 in C-Sharp Minor - Poco più Andante (1:58)
08. No. 8 in B-Flat Major (1:24)
09. No. 9 in D Minor (1:10)
10. No. 10. in G Major (0:35)
11. No. 11 in B Minor (1:31)
12. No. 12 in E Major (1:24)
13. No. 13 in B Major (0:35)
14. No. 14 in G-Sharp Minor (1:21)
15. No. 15 in A-Flat Major (1:33)
16. No. 16 in C-Sharp Minor (1:21)
Theme and Variations in D Minor, Op. 18b (1860; Germany)
17. Theme and Variations in D Minor (10:58)
4 Piano Pieces, Op. 119 (1892; Austria)
18. No. 1, Intermezzo in B Minor (3:01)
19. No. 3, Intermezzo in C Major (1:51)
7 Fantasies, Op. 116 (1892; Austria)
20. No. 5, Intermezzo in E Minor (3:10)
Piano Sonata No. 2 in F-Sharp Minor, Op. 2 (1852; Germany)
21. I. Allegro non troppo, ma energico (6:13)
22. II. Andante con espressione (6:19)
23. III. Scherzo: Allegro (3:59)
24. IV. Finale. Sostenuto - Allegro non troppo e rubato (12:04)
-Barry Douglas, piano
Recorded: West Road Concert Hall, Cambridge, 31 March and 1 April 2014

-
Контейнер: FLAC (*.flac)
Тип рипа: tracks
Разрядность: 24bit / 96kHz
Количество каналов: 2.0
-О релизе
Barry Douglas returns for the highly anticipated third volume in his series devoted to Brahms’s solo piano music, the first two volumes having been met with widespread critical acclaim. Of Vol. 2, International Record Review wrote, ‘this is indeed Brahms playing of the utmost integrity and authority... this cycle looks set to become a benchmark’.
The selected Intermezzi performed here come from the collections of short piano pieces which Brahms published in 1892 – 93, his last works for piano. A sense of wistful, melancholic reflection pervades these exquisitely crafted masterpieces of Brahms’s late maturity.
Composed at the other end of his life, at the age of twenty, the Piano Sonata in F sharp minor is full of a youthful, strident energy. It was among the pieces that, when he heard them privately, convinced Robert Schumann of Brahms’s genius. It was dedicated to Robert’s wife, Clara, who was to remain a key figure in Brahms’s life. Indeed it was Clara who, having heard the movement, begged Brahms for a piano transcription of the noble Andante from the String Sextet in B flat major, the Theme with Variations in D minor heard here.
Brahms’s set of sixteen Waltzes, Op. 39 were originally conceived for piano four hands and were arranged, by popular demand, for solo piano soon after, in 1867. They capture the sense of joyful abandon often associated with the genre but their romanticism and nostalgia are uniquely Brahmsian. - Chandos

ОтчётыДинамический диапазон

foobar2000 1.2.2 / Dynamic Range Meter 1.1.1
log date: 2015-02-12 03:28:47
--------------------------------------------------------------------------------
Analyzed: Barry Douglas / Brahms: Works for Solo Piano, Volume 3
--------------------------------------------------------------------------------
DR Peak RMS Duration Track
--------------------------------------------------------------------------------
DR12 -4.74 dB -19.84 dB 0:49 ?-16 Waltzes, Op. 39: No. 1 in B Major - Tempo giusto
DR12 -10.63 dB -26.04 dB 1:17 ?-16 Waltzes, Op. 39: No. 2 in E Major
DR11 -13.83 dB -30.58 dB 1:05 ?-16 Waltzes, Op. 39: No. 3 in G-Sharp Minor
DR11 -5.53 dB -19.93 dB 1:32 ?-16 Waltzes, Op. 39: No. 4 in E Minor - Poco sostenuto
DR11 -13.74 dB -28.35 dB 1:10 ?-16 Waltzes, Op. 39: No. 5 in E Major - Grazioso
DR11 -7.05 dB -23.62 dB 1:04 ?-16 Waltzes, Op. 39: No. 6 in C-Sharp Major - Vivace
DR13 -6.15 dB -24.66 dB 1:58 ?-16 Waltzes, Op. 39: No. 7 in C-Sharp Minor - Poco più Andante
DR12 -7.95 dB -25.49 dB 1:24 ?-16 Waltzes, Op. 39: No. 8 in B-Flat Major
DR12 -13.92 dB -30.38 dB 1:10 ?-16 Waltzes, Op. 39: No. 9 in D Minor
DR11 -6.19 dB -20.58 dB 0:35 ?-16 Waltzes, Op. 39: No. 10. in G Major
DR12 -5.67 dB -22.56 dB 1:31 ?-16 Waltzes, Op. 39: No. 11 in B Minor
DR12 -6.11 dB -24.38 dB 1:24 ?-16 Waltzes, Op. 39: No. 12 in E Major
DR12 -3.67 dB -17.74 dB 0:35 ?-16 Waltzes, Op. 39: No. 13 in B Major
DR11 -3.01 dB -19.02 dB 1:21 ?-16 Waltzes, Op. 39: No. 14 in G-Sharp Minor
DR12 -12.81 dB -29.34 dB 1:33 ?-16 Waltzes, Op. 39: No. 15 in A-Flat Major
DR12 -11.19 dB -28.31 dB 1:21 ?-16 Waltzes, Op. 39: No. 16 in C-Sharp Minor
DR15 -1.47 dB -22.10 dB 10:58 ?-Theme and Variations in D Minor, Op. 18b
DR12 -10.64 dB -28.72 dB 3:01 ?-4 Piano Pieces, Op. 119: No. 1, Intermezzo in B Minor
DR12 -5.47 dB -22.46 dB 1:51 ?-4 Piano Pieces, Op. 119: No. 3, Intermezzo in C Major
DR12 -11.25 dB -30.65 dB 3:10 ?-7 Fantasien, Op. 116: No. 5, Intermezzo in E Minor
DR13 -1.19 dB -18.79 dB 6:13 ?-Piano Sonata No. 2 in F-Sharp Minor, Op. 2: I. Allegro non troppo, ma energico
DR14 -2.61 dB -23.34 dB 6:19 ?-Piano Sonata No. 2 in F-Sharp Minor, Op. 2: II. Andante con espressione
DR13 -0.05 dB -20.45 dB 3:59 ?-Piano Sonata No. 2 in F-Sharp Minor, Op. 2: III. Scherzo: Allegro
DR14 -1.52 dB -20.92 dB 12:04 ?-Piano Sonata No. 2 in F-Sharp Minor, Op. 2: IV. Finale. Sostenuto - Allegro non troppo e rubato
--------------------------------------------------------------------------------
Number of tracks: 24
Official DR value: DR12
Samplerate: 96000 Hz
Channels: 2
Bits per sample: 24
Bitrate: 2034 kbps
Codec: FLAC
================================================================================

Скриншот спектра частот

Доп. информация

При скачивании, если необходимо, переименуйте папку, в которой будет находиться альбомБольшая просьба к скачавшим поддерживать раздачу! Помогайте другим, ведь вам тоже может понадобиться помощь!Не забываем говорить "Спасибо"!Комментарии приветствуются!
[teatrix.ru].t20350.torrent 
Торрент: Зарегистрирован [ 2016-03-19 20:39 ] · 5AD657CD21665240C86CE8FB4CC9D316756CCE72

Скачать .torrent

Скачать

21 KB

Статус: проверено
Скачан: 1 раз
Размер: 983 MB
terms.php



Быстрый ответ

Имя:

      
Для отправки сообщений необходимо включить JavaScript
Показать сообщения:    

Текущее время: 06-Дек 19:04

Часовой пояс: UTC + 3


Вы можете начинать темы
Вы можете отвечать на сообщения
Вы не можете редактировать свои сообщения
Вы не можете удалять свои сообщения
Вы не можете голосовать в опросах
Вы не можете прикреплять файлы к сообщениям
Вы можете скачивать файлы