Этот фантастический мир ( 3 выпуска из 16 ) [1987-1990, СССР, Телеспектакль, DVB]


 

[Цитировать]

Этот фантастический мир ( 3 выпуска из 16 )
Страна: СССР
Жанр: Телеспектакль
Год выпуска: 1987-1990
Продолжительность: ~00:30:00 - 01:17:00
Режиссёр: Антонина Зиновьева
В ролях:
Сергей Юрский, Кочетова, Сальников, Желден, Даша Юрская Петр Федоров, Павел Андреев, Евгений Федоров, Александр (Алекс) Очеретянский, Александр Кахун, Ксения Стриж, Геннадий Коротков и др.
Доп. информация: Внимание! Раздача ведется путем добавления новых выпусков; при каждом добавлении создается новый торрент-файл.
Семпл: https://www.sendspace.com/file/0ybwq2
Качество видео: DVB
Формат видео: MPG
Описание: «Этот фантастический мир» — серия телеспекталей, демонстрировавшихся по телевидению СССР с 1979 по 1990 год. Изначально планировалась как викторина для школьников, однако затем преобразовалась в телеальманах, содержавший несколько сюжетов на одну тему. Ведущий первого выпуска цикла передач "Этот фантастический мир" был лётчик-космонавт Константин Феоктистов, но начиная со второго выпуска постоянным ведущим программы стал лётчик-космонавт Георгий Гречко. Среди его гостей были ведущие советские писатели-фантасты. По мере записи новых серий, они будут добавляться в эту раздачу.

Описание выпусков , техданные и скриншоты13 Выпуск ."Бездна"

1987 год. По мотивам пьесы Рэя Брэдбери «Чикагская бездна». Мрачный и голодный мир после ядерной войны. Новые власти, управляющие выжившими путём распределения жалких продуктовых пайков, охотятся на полусумасшедшего старика — последнего и слишком разговорчивого свидетеля благополучной довоенной жизни.На земле остались люди, но они не помнят ничего, что было раньше в их жизни. А если вспомнят, то это грозит им смертью. И вот появился некто, кто помнит все столь подробно, что трудно в это поверить. "Я вспоминал про апельсины, лимоны и сласти...". Фантазия Бредбери показывает послеядерный мир. Сергей Юрский основа этого спектакля.
В ролях:
Сергей Юрский — старик
Наталья Кочетова — женщина
Владимир Сальников — молодой человек
Константин Желдин — неизвестный
Ёла Санько — жена неизвестного
Юрий Меншагин — полицейский
Режиссёр: Антонина Зиновьева
Продолжительность выпуска:00:58:28

MediaInfo 13 Выпуска

Общее
Полное имя : Этот фантастический мир\Бездна - 13 выпуск.mpg
Формат : MPEG-PS
Размер файла : 1,12 Гбайт
Продолжительность : 58 м.
Режим общего битрейта : Переменный
Общий поток : 2740 Кбит/сек
Библиотека кодирования : (dvd5: Nov 27 2014)
Видео
Идентификатор : 224 (0xE0)
Формат : MPEG Video
Версия формата : Version 2
Профиль формата : Main@Main
Параметр BVOP формата : Да
Параметр матрицы формата : Выборочная
Параметр GOP формата : M=3, N=12
Продолжительность : 58 м.
Вид битрейта : Переменный
Битрейт : 2493 Кбит/сек
Максимальный битрейт : 10000 Кбит/сек
Ширина : 720 пикселей
Высота : 576 пикселей
Соотношение сторон : 4:3
Частота кадров : 25,000 кадров/сек
Стандарт вещания : PAL
Цветовое пространство : YUV
Субдискретизация насыщенности : 4:2:0
Битовая глубина : 8 бит
Тип развёртки : Чересстрочная
Порядок развёртки : Верхнее поле первое
Метод сжатия : С потерями
Бит/(Пиксели*Кадры) : 0.240
Временной код первого кадра : 00:00:00:00
Оригинал временного кода : Group of pictures header
Размер потока : 1,02 Гбайт (91%)
Библиотека кодирования : (dvd5: Nov 27 2014)
Аудио
Идентификатор : 192 (0xC0)
Формат : MPEG Audio
Версия формата : Version 1
Профиль формата : Layer 2
Продолжительность : 58 м.
Вид битрейта : Постоянный
Битрейт : 192 Кбит/сек
Каналы : 2 канала
Частота : 48,0 КГц
Метод сжатия : С потерями
Задержка видео : 8 мс.
Размер потока : 80,3 Мбайт (7%)
Video: MPEG2 720:576 4:3 2493 Кбит/сек 25,000 кадров/сек
Audio: MPEG Audio 192 Кбит/сек 48,0 КГц 2 канала стерео

15 Выпуск ."Абсолютная защита"

1989 год (премьера: 4 июня 1989 года). Экранизация фрагментов рассказа «Призрак-5» Роберта Шекли — весёлого фантастического рассказа из цикла про Грегора и Арнольда из «ЛУСЛОПЛ» — Лучшей службы очистки планет. Два приятеля основали компанию по очистке планет. Пока они очищали планеты от мусора, всё шло хорошо. Но однажды их попросили очистить новую планету от призраков… Скажите, что могут сделать два не очень везучих специалиста по оздоровлению природной среды, если на планете, куда они отправились, оживают все самые ужасные детские страхи. И не просто оживают, но и убивают. Но Арнольд и Грегор не были бы специалистами, если бы не знали, как с этим бороться.
В ролях:
Пётр Фёдоров — Ричард Грегор
Павел Андреев — Фрэнк Арнольд
Евгений Фёдоров — мистер Фернграун
Александр Очеретянский — Хвататель
Семён Григорьев — Ворчун
Режиссёр: Антонина Зиновьева
Продолжительность выпуска: 00:51:43

MediaInfo 15 Выпуска

Общее
Полное имя : Этот фантастический мир\Абсолютная защита - 15 выпуск .mpg
Формат : MPEG-PS
Размер файла : 626 Мбайт
Продолжительность : 30 м.
Режим общего битрейта : Переменный
Общий поток : 2900 Кбит/сек
Библиотека кодирования : (dvd5: Nov 27 2014)
Видео
Идентификатор : 224 (0xE0)
Формат : MPEG Video
Версия формата : Version 2
Профиль формата : Main@Main
Параметр BVOP формата : Да
Параметр матрицы формата : Выборочная
Параметр GOP формата : M=3, N=12
Продолжительность : 30 м.
Вид битрейта : Переменный
Битрейт : 2650 Кбит/сек
Максимальный битрейт : 10000 Кбит/сек
Ширина : 720 пикселей
Высота : 576 пикселей
Соотношение сторон : 4:3
Частота кадров : 25,000 кадров/сек
Стандарт вещания : PAL
Цветовое пространство : YUV
Субдискретизация насыщенности : 4:2:0
Битовая глубина : 8 бит
Тип развёртки : Чересстрочная
Порядок развёртки : Верхнее поле первое
Метод сжатия : С потерями
Бит/(Пиксели*Кадры) : 0.256
Временной код первого кадра : 00:00:00:00
Оригинал временного кода : Group of pictures header
Размер потока : 572 Мбайт (91%)
Библиотека кодирования : (dvd5: Nov 27 2014)
Аудио
Идентификатор : 192 (0xC0)
Формат : MPEG Audio
Версия формата : Version 1
Профиль формата : Layer 2
Продолжительность : 30 м.
Вид битрейта : Постоянный
Битрейт : 192 Кбит/сек
Каналы : 2 канала
Частота : 48,0 КГц
Метод сжатия : С потерями
Размер потока : 41,4 Мбайт (7%)
Video: MPEG2 720:576 4:3 2650 Кбит/сек 25,000 кадров/сек
Audio: MPEG Audio 192 Кбит/сек 48,0 КГц 2 канала стерео

16 Выпуск ."Психодинамика колдовства"

1990 год. В основу программы положена повесть Джеймса Ганна (англ.) «Где бы ты ни был». Молодой ученый Мэт пишет диссертацию на тему «Психодинамика колдовства» и пытается доказать, что явлений, описанных в исторических судах над ведьмами, быть не может. Но однажды он встречает юную деревенскую девушку Эби, обладающую вполне определёнными сверхъестественными способностями (телекинез, телепортация, телепатия), проявляющимися поначалу не вполне осознанно и импульсивно. Джеймс изучает феномен, учит девушку пользоваться своими способностями более управляемо и делает это на свою же учёную голову. Так как и девушка в него влюбилась и не собирается отпускать, и сам он оказался к ней неравнодушен, хотя боится её и вроде как не собирался ни на ком жениться. Вот тут и начинается столкновение чувств, разума и азарта учёного с непосредственностью «колдуньи», вполне осознавшей свою силу.
В ролях: Александр Кахун — Мэт
Ксения Стриж (Волынцева) — Эби
Геннадий Коротков -мистер Дженкинс, отец Эби
Анна Антоненко-Луконина - продавец одежды
Григорий Лямпе,
Сергей Рубеко,
Петр Андреев
Режиссер: Антонина Зиновьева
Продолжительность выпуска: 01:16:47

MediaInfo 16 Выпуска

Общее
Полное имя :Этот фантастический мир\ Психодинамика колдовства - 16 выпуск.mpg
Формат : MPEG-PS
Размер файла : 1,90 Гбайт
Продолжительность : 1 ч. 16 м.
Режим общего битрейта : Переменный
Общий поток : 3538 Кбит/сек
Библиотека кодирования : (dvd5: Nov 27 2014)
Видео
Идентификатор : 224 (0xE0)
Формат : MPEG Video
Версия формата : Version 2
Профиль формата : Main@Main
Параметр BVOP формата : Да
Параметр матрицы формата : Выборочная
Параметр GOP формата : M=3, N=12
Продолжительность : 1 ч. 16 м.
Вид битрейта : Переменный
Битрейт : 3276 Кбит/сек
Максимальный битрейт : 10000 Кбит/сек
Ширина : 720 пикселей
Высота : 576 пикселей
Соотношение сторон : 4:3
Частота кадров : 25,000 кадров/сек
Стандарт вещания : PAL
Цветовое пространство : YUV
Субдискретизация насыщенности : 4:2:0
Битовая глубина : 8 бит
Тип развёртки : Чересстрочная
Порядок развёртки : Верхнее поле первое
Метод сжатия : С потерями
Бит/(Пиксели*Кадры) : 0.316
Временной код первого кадра : 00:00:00:00
Оригинал временного кода : Group of pictures header
Размер потока : 1,76 Гбайт (93%)
Библиотека кодирования : (dvd5: Nov 27 2014)
Аудио
Идентификатор : 192 (0xC0)
Формат : MPEG Audio
Версия формата : Version 1
Профиль формата : Layer 2
Продолжительность : 1 ч. 16 м.
Вид битрейта : Постоянный
Битрейт : 192 Кбит/сек
Каналы : 2 канала
Частота : 48,0 КГц
Метод сжатия : С потерями
Размер потока : 105 Мбайт (5%)
Video: MPEG2 720:576 4:3 3276 Кбит/сек 25,000 кадров/сек
Audio: MPEG Audio 192 Кбит/сек 48,0 КГц 2 канала стерео
Запись потока *.ts произведена тюнером цифрового телевидения. В связи с тем, что не все плееры воспроизводят поток *.ts (MPEG-TS) , в данном видеофайле мной был сделан ремукс потока *.ts (MPEG-TS) в *.mpg (MPEG-PS) программой VideoReDo.



Показать сообщения:    

Текущее время: 07-Дек 15:33

Часовой пояс: UTC + 3


Вы не можете начинать темы
Вы не можете отвечать на сообщения
Вы не можете редактировать свои сообщения
Вы не можете удалять свои сообщения
Вы не можете голосовать в опросах
Вы не можете прикреплять файлы к сообщениям
Вы не можете скачивать файлы