(Choral, Orchestral) Wagner - Das Liebesmahl der Apostel ect. (Mannerchore des Singvereins der Gesellschaft der Musikfreunde Wien, Dresden Philharmonie, Michel Plasson) - 1997, FLAC (image+.cue), lossless


Статистика раздачи [Обновить пиров]
Размер:  285 MB   |    Зарегистрирован:  8 месяцев 22 дня   |    Скачан:  0 раз

Полного источника не было: 17 дней

 
   
 
 
 

[Цитировать]

Wagner - Das Liebesmahl der Apostel
Жанр: Classical, Choral
Страна-производитель диска: Holland
Год издания диска: 1997
Издатель (лейбл): EMI Music France
Номер по каталогу: 7243 5 56358 2 2
Дата записи: 23-25.05.1996
Аудиокодек: FLAC
Тип рипа: image+.cue
Битрейт аудио: lossless
Продолжительность: 74.32
Источник: собственный рип
Наличие сканов в содержимом раздачи: да

Треклист:

01. Eine Faust-Ouvertüre
02. Festgesang: 'Der Tag erscheint'
03. An Weber's Grabe: 'Hebt an den Sang'
04. Siegfried-Idyll
05. Trauersinfonie
06. Das Liebesmahl der Apostel
Total 74.32

Исполнители:

Mannerchöre des Singvereins der Gesellschaft der Musikfreunde Wien
Mannerchöre des Wiener Kammerchores
Johannes Prinz
Mannerchöre des Philharmonischen Chores und Jugendchores Dresden
Matthias Geissler & Jürgen Becker
Dresden Philharmonie
Michel Plasson

Лог создания рипа:

Exact Audio Copy V1.0 beta 3 from 29. August 2011
Отчёт EAC об извлечении, выполненном 12. февраля 2015, 22:22
Richard Wagner / Das Liebesmahl der Apostel
Дисковод: Optiarc DVD RW AD-7260S Adapter: 0 ID: 1
Режим чтения : Достоверность
Использование точного потока : Да
Отключение кэша аудио : Да
Использование указателей C2 : Нет
Коррекция смещения при чтении : 48
Способность читать области Lead-in и Lead-out : Нет
Заполнение пропущенных сэмплов тишиной : Да
Удаление блоков с тишиной в начале и конце : Нет
При вычислениях CRC использовались нулевые сэмплы : Да
Интерфейс : Встроенный Win32-интерфейс для Win NT/2000
Выходной формат : Пользовательский кодировщик
Выбранный битрейт : 896 kBit/s
Качество : Высокий
Добавление ID3-тега : Нет
Утилита сжатия : C:\Program Files\FLAC Frontend\tools\flac.exe
Дополнительные параметры : -V -8 -T "Date=%year%" -T "Genre=%genre%" %source%
TOC извлечённого CD
Трек | Старт | Длительность | Начальный сектор | Конечный сектор
---------------------------------------------------------------------
1 | 0:00.00 | 11:35.20 | 0 | 52144
2 | 11:35.20 | 5:37.20 | 52145 | 77439
3 | 17:12.40 | 4:36.65 | 77440 | 98204
4 | 21:49.30 | 19:28.57 | 98205 | 185861
5 | 41:18.12 | 6:53.48 | 185862 | 216884
6 | 48:11.60 | 26:19.20 | 216885 | 335329
Характеристики диапазона извлечения и сообщения об ошибках
Выбранный диапазон
Имя файла N:\Wagner - Das Liebesmahl der Apostel - Plasson\Richard Wagner - Das Liebesmahl der Apostel.wav
Пиковый уровень 98.7 %
Скорость извлечения 4.4 X
Качество диапазона 99.9 %
CRC теста DD0F4F76
CRC копии DD0F4F76
Копирование... OK
Ошибок не произошло
AccurateRip: сводка
Трек 1 : извлечено точно (доверие 3) [C8D10EAB] (AR v2)
Трек 2 : извлечено точно (доверие 3) [EF124B5A] (AR v2)
Трек 3 : извлечено точно (доверие 3) [A8737774] (AR v2)
Трек 4 : извлечено точно (доверие 3) [FF14F9E4] (AR v2)
Трек 5 : извлечено точно (доверие 3) [F4917058] (AR v2)
Трек 6 : извлечено точно (доверие 3) [5C84057D] (AR v2)
Все треки извлечены точно
Конец отчёта
==== Контрольная сумма отчёта 6C99875B7FABA006B3B0EF82065A26F2AF58095576AB4CA1BF3AEB54785365FB ====
[teatrix.ru].t20354.torrent 
Торрент: Зарегистрирован [ 2016-03-19 20:38 ] · 46805C156C8CE575BF038773EF85149F2706FADA

Скачать .torrent

Скачать

13 KB

Статус: проверено
Скачан: 0 раз
Размер: 285 MB
terms.php



Быстрый ответ

Имя:

      
Для отправки сообщений необходимо включить JavaScript
Показать сообщения:    

Текущее время: 11-Дек 03:19

Часовой пояс: UTC + 3


Вы можете начинать темы
Вы можете отвечать на сообщения
Вы не можете редактировать свои сообщения
Вы не можете удалять свои сообщения
Вы не можете голосовать в опросах
Вы не можете прикреплять файлы к сообщениям
Вы можете скачивать файлы