Лестничная клетка (Юрий Погребничко, Лилия Загорская) [2013 г., лирическая комедия, экранизация, SATRip] Московский театр "Около дома Станиславского"


 

[Цитировать]

Лестничная клетка Название театра: Московский театр "Около дома Станиславского".
Год выпуска: 2013.
Жанр: лирическая комедия, экранизация.
Продолжительность: 00:59:51.
Режиссеры: народный артист России Юрий Погребничко, заслуженная артистка России Лилия Загорская, Татьяна Александрова.
Действующие лица и исполнители:
Юра - Сергей Каплунов,
Слава - Юрий Павлов,
Галя - Елена Павлова,
Соседка - Татьяна Токарева,
Сотрудники института - Владимир Богданов, Элен Касьяник.
Описание:
"Лестничная клетка" - спектакль по пьесе Людмилы Петрушевской.
Незамысловатый сюжет, рассказывающий о немолодой женщине, решившей познакомиться по объявлению, приобретает философский смысл. На свидание пришли двое музыкантов похоронного оркестра. Ничего не значащий разговор из коротких реплик то сближает, то отдаляет героев, которые сами не знают, что лучше: остаться или уйти. Их объединяет только пространство подъезда... А что за ним?

Дополнительная информация:
Страна: Россия .
Выпущено: © Московский театр "Около дома Станиславского", © ООО "Яуза-Фильм" по заказу © Правительства Москвы.
Художественный руководитель постановки: народный артист России Юрий Погребничко.
Автор: Людмила Петрушевская.
Режиссер: заслуженная артистка России Лилия Загорская.
Сценография и костюмы: Надежда Бахвалова.
Пластика: Юлия Кантомирова.
Художники по свету: М. Шимберг, Д. Дахин.
Премьера спектакля состоялась 14 мая 2004 года.
Режиссер телеверсии: Татьяна Александрова
Оператор-постановщик: Сергей Стариков.

О спектакле.
Релиз

Качество видео:...SATRip
Формат:.................AVI
Видео:..720x400 (1.80:1), 25 fps, XviD MPEG-4 ~1600 kbps avg, 0.22 bit/pixel
Аудио:..44.100 kHz, MPEG Layer 3, 2 ch, ~128.00 kbps avg

Отчет MediaInfo

Общее
Полное имя : Lestnichnaya.kletka_Moskovskij.teatr.Okolo.doma.Stanislavskogo.2013.XvD.SATRip.fenixclub.avi
Формат : AVI
Формат/Информация : Audio Video Interleave
Размер файла : 744 Мбайт
Продолжительность : 59 м.
Общий поток : 1739 Кбит/сек
Программа кодирования : VirtualDubModRus 1.5.10.2 (build 2542/release)
Библиотека кодирования : VirtualDub build 32842/release
Видео
Идентификатор : 0
Формат : MPEG-4 Visual
Профиль формата : Advanced Simple@L5
Параметр BVOP формата : 2
Параметр QPel формата : Нет
Параметр GMC формата : Без точки перехода
Параметр матрицы формата : Default (H.263)
Режим смешивания : Сжатый битовый поток
Идентификатор кодека : XVID
Идентификатор кодека/Подсказка : XviD
Продолжительность : 59 м.
Битрейт : 1601 Кбит/сек
Ширина : 720 пикселей
Высота : 400 пикселей
Соотношение сторон : 16:9
Частота кадров : 25,000 кадров/сек
Цветовое пространство : YUV
Субдискретизация насыщенности : 4:2:0
Битовая глубина : 8 бит
Тип развёртки : Прогрессивная
Метод сжатия : С потерями
Бит/(Пиксели*Кадры) : 0.222
Размер потока : 685 Мбайт (92%)
Библиотека кодирования : XviD 73
Аудио
Идентификатор : 1
Формат : MPEG Audio
Версия формата : Version 1
Профиль формата : Layer 3
Режим : Joint stereo
Расширение режима : MS Stereo
Идентификатор кодека : 55
Идентификатор кодека/Подсказка : MP3
Продолжительность : 59 м.
Вид битрейта : Постоянный
Битрейт : 128 Кбит/сек
Каналы : 2 канала
Частота : 44,1 КГц
Метод сжатия : С потерями
Размер потока : 54,8 Мбайт (7%)
Выравнивание : Разделение по промежуткам
Продолжительность промежутка : 40 мс. (1,00 видеокадр)
Время предзагрузки промежутка : 500 мс.
Библиотека кодирования : LAME3.98.2

Скриншоты

Альтернативный хост




Показать сообщения:    

Текущее время: 10-Дек 10:01

Часовой пояс: UTC + 3


Вы не можете начинать темы
Вы не можете отвечать на сообщения
Вы не можете редактировать свои сообщения
Вы не можете удалять свои сообщения
Вы не можете голосовать в опросах
Вы не можете прикреплять файлы к сообщениям
Вы не можете скачивать файлы