Приговор Ермака. Виктор Степанов (Ирина Голубева) [2007, Документальный, биография, история, SATRip]


Статистика раздачи [Обновить пиров]
Размер:  601 MB   |    Зарегистрирован:  8 месяцев 20 дней   |    Скачан:  0 раз

Полного источника не было: Никогда

 
   
 
 
 

[Цитировать]

Приговор Ермака. Виктор Степанов
Дата/Год выпуска: 2007
Страна: Россия, БеМис Продакшн
Жанр: Документальный, биография, история
Продолжительность: 00:51:21
Перевод: Не требуется
Режиссер: Ирина Голубева
Описание: Актер Виктор Степанов в шутку называл себя памятником, поскольку переиграл множество персонажей, сказавших свое слово в российской и советской истории – от Ломоносова и Петра I до Горбачева и Черномырдина. Роль русского атамана Ермака станет этапом в карьере актера Степанова и приговором в жизни Степанова – человека. Отказавшись от дублера, артист скакал верхом сам, лошадь понесла, он упал. После этого падения у Степанова начнет развиваться смертельная болезнь – плазмоцитома. В течение двенадцати лет его кости будут рассыпаться, он весь будет состоять из металлоконструкций. Настоящий русский мужик Виктор Степанов будет бороться с болезнью до конца, вырывая у смерти сначала годы, затем месяцы, дни и часы. Он останется и настоящим актером – будет работать в профессии до последнего дня.
качество: SATRip
формат: AVI
Видео: 704x528 (1.33:1), 25 fps, XviD MPEG-4 ~1499 kbps avg, 0.16 bit/pixel
Аудио: 48 kHz, MPEG Layer 3, 2 ch, ~128.00 kbps avg

Скриншоты




MediaInfo

Общее
Полное имя : C:\Users\Ольга\Downloads\Приговор Ермака-Виктор Степанов.avi
Формат : AVI
Формат/Информация : Audio Video Interleave
Размер файла : 601 Мбайт
Продолжительность : 51 м.
Общий поток : 1637 Кбит/сек
Программа кодирования : VirtualDubMod 1.5.10.2 (build 2540/release)
Библиотека кодирования : VirtualDubMod build 2540/release
Видео
Идентификатор : 0
Формат : MPEG-4 Visual
Профиль формата : Advanced Simple@L5
Параметр BVOP формата : 1
Параметр QPel формата : Нет
Параметр GMC формата : Без точки перехода
Параметр матрицы формата : Default (H.263)
Идентификатор кодека : XVID
Идентификатор кодека/Подсказка : XviD
Продолжительность : 51 м.
Битрейт : 1499 Кбит/сек
Ширина : 704 пикселя
Высота : 528 пикселей
Соотношение сторон : 4:3
Частота кадров : 25,000 кадров/сек
Цветовое пространство : YUV
Субдискретизация насыщенности : 4:2:0
Битовая глубина : 8 бит
Тип развёртки : Прогрессивная
Метод сжатия : С потерями
Бит/(Пиксели*Кадры) : 0.161
Размер потока : 551 Мбайт (92%)
Библиотека кодирования : XviD 1.2.1 (UTC 2008-12-04)
Аудио
Идентификатор : 1
Формат : MPEG Audio
Версия формата : Version 1
Профиль формата : Layer 3
Идентификатор кодека : 55
Идентификатор кодека/Подсказка : MP3
Продолжительность : 51 м.
Вид битрейта : Постоянный
Битрейт : 128 Кбит/сек
Каналы : 2 канала
Частота : 48,0 КГц
Метод сжатия : С потерями
Размер потока : 47,0 Мбайт (8%)
Выравнивание : Соединение по промежуткам
Продолжительность промежутка : 40 мс. (1,00 видеокадр)
Время предзагрузки промежутка : 504 мс.
Библиотека кодирования : LAME3.98r
Настройки программы : -m s -V 4 -q 2 -lowpass 17 -b 128
[teatrix.ru].t20357.torrent 
Торрент: Зарегистрирован [ 2016-03-19 20:38 ] · 62199B64AB2C4D8C5329C3AA1B132BA906ED4ED0

Скачать .torrent

Скачать

12 KB

Статус: проверено
Скачан: 0 раз
Размер: 601 MB
terms.php



Быстрый ответ

Имя:

      
Для отправки сообщений необходимо включить JavaScript
Показать сообщения:    

Текущее время: 09-Дек 08:54

Часовой пояс: UTC + 3


Вы можете начинать темы
Вы можете отвечать на сообщения
Вы не можете редактировать свои сообщения
Вы не можете удалять свои сообщения
Вы не можете голосовать в опросах
Вы не можете прикреплять файлы к сообщениям
Вы можете скачивать файлы