Негритянское танго. Африканские корни танго / Tango Negro, les racines africaines du tango / Tango Negro: The African Roots of Tango (Дом Педро / Dom Pedro) [2013, документальный, музыка, DVB] Original (Fre) + Sub (rus)


Статистика раздачи [Обновить пиров]
Размер:  1.89 GB   |    Зарегистрирован:  8 месяцев 17 дней   |    Скачан:  0 раз

Полного источника не было: Никогда

 
   
 
 
 

[Цитировать]

Негритянское танго. Африканские корни танго
Tango Negro, les racines africaines du tango- Дата/Год выпуска: 2013
Страна: Франция
Жанр: документальный, музыка
Продолжительность: 01:34:09
Перевод: Субтитры
Русские субтитры: есть
Формат субтитров: hardsub (неотключаемые)
Доп. информация о субтитрах: перевод И.Рыбкиной, Éclair Group
Оригинальная аудиодорожка: французский
Режиссер: Дом Педро / Dom Pedro
Телеканал: TV5MONDEОписание: Танго - аргентинский народный танец; парный танец свободной композиции, отличающийся энергичным и четким ритмом. Изначально исполнялся исключительно мужчинами.
Танго получило распространение от африканских сообществ в Буэнос-Айресе на основе древних африканских танцевальных форм. Слово "танго" также имеет африканское происхождение, его возводят к языку нигерийского народа ибибио, где оно значило "танец под звук барабана", и применяют к мелодиям, полученным в результате синтеза различных форм музыки из Европы, Африки и Америки.
Доп. информация: TV5MONDE DVB-S
Участник African Diaspora International Film Festival 2013; FESPACO Festival 2014.

качество: DVB
формат: MKV
Видео: MPEG Video 2, 704x576@1024x576 (16:9), 25 fps, ~2627 kbps avg, 0.259 bit/pixel
Аудио: Французский (MPEG Audio 2, 2 ch, 48 kHz, ~192.00 kbps avg)

MediaInfo

Общее
Уникальный идентификатор : 187320513272416884588363895473570128962 (0x8CEC9E5AAA295966B9718760EFB52442)
Полное имя : E:\My Torrents 2\[apreder]Tango_Negro(2013)DVB.mkv
Формат : Matroska
Версия формата : Version 2
Размер файла : 1,89 Гбайт
Продолжительность : 1 ч. 34 м.
Режим общего битрейта : Переменный
Общий поток : 2876 Кбит/сек
Дата кодирования : UTC 2015-02-13 16:58:08
Программа кодирования : mkvmerge v7.6.0 ('Garden of Dreams') 64bit built on Feb 8 2015 13:04:34
Библиотека кодирования : libebml v1.3.1 + libmatroska v1.4.2
Видео
Идентификатор : 1
Формат : MPEG Video
Версия формата : Version 2
Профиль формата : Main@Main
Параметр BVOP формата : Да
Параметр матрицы формата : Выборочная
Параметр GOP формата : M=3, N=15
Format_Settings_PictureStructure : Frame
Идентификатор кодека : V_MPEG2
Идентификатор кодека/Информация : MPEG 1 or 2 Video
Продолжительность : 1 ч. 34 м.
Вид битрейта : Переменный
Битрейт : 2627 Кбит/сек
Ширина : 704 пикселя
Высота : 576 пикселей
Соотношение сторон : 16:9
Режим частоты кадров : Постоянный
Частота кадров : 25,000 кадров/сек
Стандарт вещания : PAL
Цветовое пространство : YUV
Субдискретизация насыщенности : 4:2:0
Битовая глубина : 8 бит
Тип развёртки : Чересстрочная
Порядок развёртки : Верхнее поле первое
Метод сжатия : С потерями
Бит/(Пиксели*Кадры) : 0.259
Временной код первого кадра : 00:00:00:00
Оригинал временного кода : Group of pictures header
Размер потока : 1,73 Гбайт (91%)
Default : Да
Forced : Нет
Gop_OpenClosed_FirstFrame : Closed
Аудио
Идентификатор : 2
Формат : MPEG Audio
Версия формата : Version 1
Профиль формата : Layer 2
Идентификатор кодека : A_MPEG/L2
Идентификатор кодека/Подсказка : MP2
Продолжительность : 1 ч. 34 м.
Вид битрейта : Постоянный
Битрейт : 192 Кбит/сек
Каналы : 2 канала
Частота : 48,0 КГц
Метод сжатия : С потерями
Размер потока : 129 Мбайт (7%)
Язык : French
Default : Да
Forced : Нет

Скриншоты


Резервные скриншоты


-[2'117]
[teatrix.ru].t20359.torrent 
Торрент: Зарегистрирован [ 2016-03-19 20:38 ] · 22E00E567FEA8FF4EC9A3C5DBCE7B7C7B44D9214

Скачать .torrent

Скачать

19 KB

Статус: проверено
Скачан: 0 раз
Размер: 1.89 GB
terms.php



Быстрый ответ

Имя:

      
Для отправки сообщений необходимо включить JavaScript
Показать сообщения:    

Текущее время: 05-Дек 23:36

Часовой пояс: UTC + 3


Вы можете начинать темы
Вы можете отвечать на сообщения
Вы не можете редактировать свои сообщения
Вы не можете удалять свои сообщения
Вы не можете голосовать в опросах
Вы не можете прикреплять файлы к сообщениям
Вы можете скачивать файлы