[TR24][SM][OF] Bartlomiej Pekiel - Ave Maria • Missa Concertata La Lombardesca • Audite mortales - Eamonn Dougan & The Sixteen - 2013 (Classical)


Статистика раздачи [Обновить пиров]
Размер:  1.11 GB   |    Зарегистрирован:  8 месяцев 22 дня   |    Скачан:  0 раз

Полного источника не было: Никогда

 
   
 
 
 

[Цитировать]

Bartłomiej Pękiel (fl.1633-1670)Gramophone Awards 2014Shortlisted - Baroque Vocal
Gramophone Magazine Editor's Choice - September 2013
Жанр: Choral & Vocal Music
Носитель: Official Digital Download
Год издания диска: 2013
Издатель(лейбл): The Sixteen Productions
Номер по каталогу: COR16110
Продолжительность: 01:05:40
Наличие сканов в содержимом раздачи: cover & booklet
Контейнер: FLAC (*.flac)
Разрядность: 24/96
Количество каналов: 2.0
Формат: tracks
Источник: qobuz.com
Pелизер: WEB (thanks to the original customer)
The Sixteen
Eamonn Dougan
http://www.qobuz.com/fr-fr/album/bartlomiej-pekiel-messes-motets-the-sixteen-eamo...11025?qref=dac_4

Треклист

MIssa a1401 Kyrie 3.20
02 Gloria 3.48
03 Resonet in laudibus 1.49
04 Dulcis amor Jesu 6.28
05 Magnum nomen Domini 1.49
06 Audite mortales * 12.55
07 O adoranda Trinitas 2.55
08 Nativitas tua 4.06
Missa Concertata La Lombardesca
09 Kyrie 3.10
10 Gloria 5.01
11 Assumpta est Maria 2.42
Missa Concertata La Lombardesca
12 Credo 9.23
13 Ave Maria 3.21
Missa Concertata La Lombardesca
14 Sanctus 1.36
15 Benedictus 1.35
16 Agnus Dei 1.51

The Sixteen


sopranoAlice Gribbin, Charlotte Mobbs
alto David Clegg, Edward McMullan, Kim Porter, Christopher Royall, Caroline Trevor
tenor Simon Berridge, Jeremy Budd, Mark Dobell, Matthew Long, Nick Pritchard, Nicholas Mulroy*
bass Ben Davies, Jimmy Holliday, Tim Jones, Stuart Young

violin Simon Jones, Andrea Jones
viols Joanna Levine, Emilia Benjamin, Liam Byrne, Reiko Ichise*
violone grosso Jan Spencer
harp Frances Kelly
theorbo David Miller
organ Mark Williams
sackbutt Sue Addison, Emily White, Adrian France

Dynamic Range Meter

foobar2000 1.2.6 / Dynamic Range Meter 1.1.1
log date: 2015-02-13 23:53:29
--------------------------------------------------------------------------------
Analyzed: The Sixteen, Eamonn Dougan / Bartlomiej Pekiel: Messes - Motets
--------------------------------------------------------------------------------
DR Peak RMS Duration Track
--------------------------------------------------------------------------------
DR12 -4.61 dB -21.74 dB 3:21 01-Missa a14: Kyrie
DR12 -3.67 dB -21.45 dB 3:48 02-Missa a14: Gloria
DR11 -4.15 dB -20.26 dB 1:52 03-Resonet in Laudibus
DR13 -7.34 dB -24.70 dB 6:31 04-Dulcis amor Jesu
DR13 -2.17 dB -21.17 dB 1:50 05-Magnum nomen Domini
DR15 -4.47 dB -24.49 dB 12:59 06-Audite mortales
DR13 -5.06 dB -22.56 dB 2:59 07-O adoranda Trinitas
DR13 -4.65 dB -22.65 dB 4:10 08-Nativitas tua
DR12 -4.84 dB -21.00 dB 3:14 09-Missa Concertata La Lombardesca: Kyrie
DR13 -1.93 dB -20.86 dB 5:03 10-Missa Concertata La Lombardesca: Gloria
DR13 -3.63 dB -21.60 dB 2:44 11-Assumpta est Maria
DR13 -3.11 dB -20.34 dB 9:29 12-Missa Concertata La Lombardesca: Credo
DR12 -5.44 dB -23.34 dB 3:18 13-Ave Maria
DR11 -3.78 dB -19.27 dB 1:44 14-Missa Concertata La Lombardesca: Sanctus
DR10 -3.63 dB -18.92 dB 1:37 15-Missa Concertata La Lombardesca: Benedictus
DR11 -3.91 dB -20.75 dB 1:53 16-Missa Concertata La Lombardesca: Agnus Dei
--------------------------------------------------------------------------------
Number of tracks: 16
Official DR value: DR12
Samplerate: 96000 Hz
Channels: 2
Bits per sample: 24
Bitrate: 2342 kbps
Codec: FLAC
================================================================================
[teatrix.ru].t20360.torrent 
Торрент: Зарегистрирован [ 2016-03-19 20:38 ] · ADDCB6C12A5D2538DD3CDC248BBE8CE20B15E4CD

Скачать .torrent

Скачать

13 KB

Статус: проверено
Скачан: 0 раз
Размер: 1.11 GB
terms.php



Быстрый ответ

Имя:

      
Для отправки сообщений необходимо включить JavaScript
Показать сообщения:    

Текущее время: 11-Дек 01:27

Часовой пояс: UTC + 3


Вы можете начинать темы
Вы можете отвечать на сообщения
Вы не можете редактировать свои сообщения
Вы не можете удалять свои сообщения
Вы не можете голосовать в опросах
Вы не можете прикреплять файлы к сообщениям
Вы можете скачивать файлы