(Classical) Bach, J.S. - Flute Sonatas, Vol.1 (Petri Alanko, Anssi Mattila, Jukka Rautasalo) - 1996, FLAC (tracks+.cue) lossless


 

[Цитировать]

Bach, J.S. - Flute Sonatas, Vol.1 (Petri Alanko, Anssi Mattila, Jukka Rautasalo)
Жанр: Classical
Страна-производитель диска: Germany
Год издания диска: 1996
Издатель (лейбл): Naxos
Номер по каталогу: 8.553754
Дата записи: 1996
Аудиокодек: FLAC
Тип рипа: tracks+.cue
Битрейт аудио: lossless
Продолжительность: 51:23
Источник: собственный рип
сайт-источник/ник/другое: Из личной коллекции
Наличие сканов в содержимом раздачи: да
Треклист:
Bach, Johann Sebastian
Flute Sonata in E Minor, BWV 1034
1. I. Adagio ma non tanto 00:02:54
2. II. Allegro 00:02:36
3. III. Andante 00:03:16
4. IV. Allegro 00:04:33
Flute Sonata in E-Flat Major, BWV 1031
5. I. Allegro moderato 00:03:29
6. II. Siciliano 00:02:04
7. III. Allegro 00:04:26
Flute Partita in A Minor, BWV 1013
8. I. Allemande 00:05:05
9. II. Corrente 00:03:35
10. III. Sarabande 00:05:02
11. IV. Bouree Anglaise 00:02:39
Flute Sonata in A Major, BWV 1032
12. I. Vivace 00:04:11
13. II. Largo e dolce 00:03:23
14. III. Allegro 00:04:10
Total Playing Time: 00:51:23
Исполнители:
Anssi Mattila (harpsichord), Jukka Rautasalo (cello), Petri Alanko (flute)

Лог создания рипа

Exact Audio Copy V0.99 prebeta 5 from 4. May 2009
EAC extraction logfile from 19. March 2012, 10:47
Petri Alanko, Anssi Mattila, Jukka Rautasalo / Bach, J.S. Flute Sonatas Vol.1 - Petri Alanko, Anssi Mattila, Jukka Rautasalo
Used drive : PLEXTOR DVDR PX-800A Adapter: 1 ID: 0
Read mode : Secure
Utilize accurate stream : Yes
Defeat audio cache : Yes
Make use of C2 pointers : No
Read offset correction : 48
Overread into Lead-In and Lead-Out : No
Fill up missing offset samples with silence : Yes
Delete leading and trailing silent blocks : No
Null samples used in CRC calculations : No
Used interface : Native Win32 interface for Win NT & 2000
Gap handling : Appended to previous track
Used output format : User Defined Encoder
Selected bitrate : 1024 kBit/s
Quality : High
Add ID3 tag : No
Command line compressor : C:\Program Files\Exact Audio Copy\FLAC\FLAC.EXE
Additional command line options : -8 -V -T "ARTIST=%a" -T "TITLE=%t" -T "ALBUM=%g" -T "DATE=%y" -T "TRACKNUMBER=%n" -T "GENRE=%m" -T "COMMENT=%e" %s -o %d
TOC of the extracted CD
Track | Start | Length | Start sector | End sector
---------------------------------------------------------
1 | 0:00.00 | 2:54.02 | 0 | 13051
2 | 2:54.02 | 2:36.33 | 13052 | 24784
3 | 5:30.35 | 3:16.07 | 24785 | 39491
4 | 8:46.42 | 4:32.50 | 39492 | 59941
5 | 13:19.17 | 3:29.15 | 59942 | 75631
6 | 16:48.32 | 2:03.70 | 75632 | 84926
7 | 18:52.27 | 4:25.50 | 84927 | 104851
8 | 23:18.02 | 5:05.60 | 104852 | 127786
9 | 28:23.62 | 3:34.40 | 127787 | 143876
10 | 31:58.27 | 5:01.73 | 143877 | 166524
11 | 37:00.25 | 2:39.07 | 166525 | 178456
12 | 39:39.32 | 4:11.38 | 178457 | 197319
13 | 43:50.70 | 3:23.00 | 197320 | 212544
14 | 47:13.70 | 4:09.20 | 212545 | 231239
Track 1
Filename E:\1111\Bach,J.S.Flute_Sonatas,Vol.1-Petri_Alanko,Anssi_Mattila,Jukka_Rautasalo(Naxos,8.553754)\01 - Bach, J.S. Sonata for Flute and Continuo in E minor, BWV1034 - I. Adagio ma non tanto.wav
Pre-gap length 0:00:02.00
Peak level 44.4 %
Track quality 99.9 %
Test CRC 7D49BCF1
Copy CRC 7D49BCF1
Accurately ripped (confidence 4) [71230A3E]
Copy OK
Track 2
Filename E:\1111\Bach,J.S.Flute_Sonatas,Vol.1-Petri_Alanko,Anssi_Mattila,Jukka_Rautasalo(Naxos,8.553754)\02 - Bach, J.S. Sonata for Flute and Continuo in E minor, BWV1034 - II. Allegro.wav
Pre-gap length 0:00:02.17
Peak level 48.4 %
Track quality 100.0 %
Test CRC 87EFB57A
Copy CRC 87EFB57A
Accurately ripped (confidence 4) [F390DBC4]
Copy OK
Track 3
Filename E:\1111\Bach,J.S.Flute_Sonatas,Vol.1-Petri_Alanko,Anssi_Mattila,Jukka_Rautasalo(Naxos,8.553754)\03 - Bach, J.S. Sonata for Flute and Continuo in E minor, BWV1034 - III. Andante.wav
Pre-gap length 0:00:02.09
Peak level 43.1 %
Track quality 100.0 %
Test CRC 25A956D7
Copy CRC 25A956D7
Accurately ripped (confidence 4) [04662DC4]
Copy OK
Track 4
Filename E:\1111\Bach,J.S.Flute_Sonatas,Vol.1-Petri_Alanko,Anssi_Mattila,Jukka_Rautasalo(Naxos,8.553754)\04 - Bach, J.S. Sonata for Flute and Continuo in E minor, BWV1034 - IV. Allegro.wav
Pre-gap length 0:00:01.12
Peak level 56.5 %
Track quality 99.9 %
Test CRC 515B73DB
Copy CRC 515B73DB
Accurately ripped (confidence 4) [B10D0A3E]
Copy OK
Track 5
Filename E:\1111\Bach,J.S.Flute_Sonatas,Vol.1-Petri_Alanko,Anssi_Mattila,Jukka_Rautasalo(Naxos,8.553754)\05 - Bach, J.S. Sonata for Flute and Harpsichord in E flat major, BWV1031 - I. Allegro moderato.wav
Pre-gap length 0:00:05.32
Peak level 35.7 %
Track quality 99.9 %
Test CRC C37C92CF
Copy CRC C37C92CF
Accurately ripped (confidence 4) [0DE553D7]
Copy OK
Track 6
Filename E:\1111\Bach,J.S.Flute_Sonatas,Vol.1-Petri_Alanko,Anssi_Mattila,Jukka_Rautasalo(Naxos,8.553754)\06 - Bach, J.S. Sonata for Flute and Harpsichord in E flat major, BWV1031 - II. Siciliana.wav
Pre-gap length 0:00:03.01
Peak level 33.6 %
Track quality 100.0 %
Test CRC DA4A8650
Copy CRC DA4A8650
Accurately ripped (confidence 4) [3B399114]
Copy OK
Track 7
Filename E:\1111\Bach,J.S.Flute_Sonatas,Vol.1-Petri_Alanko,Anssi_Mattila,Jukka_Rautasalo(Naxos,8.553754)\07 - Bach, J.S. Sonata for Flute and Harpsichord in E flat major, BWV1031 - III. Allegro.wav
Pre-gap length 0:00:01.36
Peak level 29.9 %
Track quality 100.0 %
Test CRC E1A2FEC7
Copy CRC E1A2FEC7
Accurately ripped (confidence 4) [F7321660]
Copy OK
Track 8
Filename E:\1111\Bach,J.S.Flute_Sonatas,Vol.1-Petri_Alanko,Anssi_Mattila,Jukka_Rautasalo(Naxos,8.553754)\08 - Bach, J.S. Partita for Solo Flute in A minor, BWV1013 - I. Allemande.wav
Pre-gap length 0:00:06.07
Peak level 57.0 %
Track quality 99.9 %
Test CRC B727C187
Copy CRC B727C187
Accurately ripped (confidence 4) [0E83A2B5]
Copy OK
Track 9
Filename E:\1111\Bach,J.S.Flute_Sonatas,Vol.1-Petri_Alanko,Anssi_Mattila,Jukka_Rautasalo(Naxos,8.553754)\09 - Bach, J.S. Partita for Solo Flute in A minor, BWV1013 - II. Corrente.wav
Peak level 38.1 %
Track quality 99.9 %
Test CRC F9159CC1
Copy CRC F9159CC1
Accurately ripped (confidence 4) [062B202F]
Copy OK
Track 10
Filename E:\1111\Bach,J.S.Flute_Sonatas,Vol.1-Petri_Alanko,Anssi_Mattila,Jukka_Rautasalo(Naxos,8.553754)\10 - Bach, J.S. Partita for Solo Flute in A minor, BWV1013 - III. Sarabande.wav
Pre-gap length 0:00:03.17
Peak level 41.2 %
Track quality 100.0 %
Test CRC 82DEA2B9
Copy CRC 82DEA2B9
Accurately ripped (confidence 4) [87389AF9]
Copy OK
Track 11
Filename E:\1111\Bach,J.S.Flute_Sonatas,Vol.1-Petri_Alanko,Anssi_Mattila,Jukka_Rautasalo(Naxos,8.553754)\11 - Bach, J.S. Partita for Solo Flute in A minor, BWV1013 - IV. Bourrйe Anglaise.wav
Pre-gap length 0:00:06.09
Peak level 55.4 %
Track quality 100.0 %
Test CRC D36A9E27
Copy CRC D36A9E27
Accurately ripped (confidence 4) [A2467711]
Copy OK
Track 12
Filename E:\1111\Bach,J.S.Flute_Sonatas,Vol.1-Petri_Alanko,Anssi_Mattila,Jukka_Rautasalo(Naxos,8.553754)\12 - Bach, J.S. Sonata for Flute and Harpsichord in A major, BWV1032 - I. Vivace.wav
Pre-gap length 0:00:05.16
Peak level 38.6 %
Track quality 100.0 %
Test CRC 25CDA561
Copy CRC 25CDA561
Accurately ripped (confidence 4) [D5737C77]
Copy OK
Track 13
Filename E:\1111\Bach,J.S.Flute_Sonatas,Vol.1-Petri_Alanko,Anssi_Mattila,Jukka_Rautasalo(Naxos,8.553754)\13 - Bach, J.S. Sonata for Flute and Harpsichord in A major, BWV1032 - II. Largo e dolce.wav
Pre-gap length 0:00:02.36
Peak level 28.8 %
Track quality 100.0 %
Test CRC C2480584
Copy CRC C2480584
Accurately ripped (confidence 4) [BDCF2736]
Copy OK
Track 14
Filename E:\1111\Bach,J.S.Flute_Sonatas,Vol.1-Petri_Alanko,Anssi_Mattila,Jukka_Rautasalo(Naxos,8.553754)\14 - Bach, J.S. Sonata for Flute and Harpsichord in A major, BWV1032 - III. Allegro.wav
Peak level 43.7 %
Track quality 100.0 %
Test CRC CD5C5772
Copy CRC CD5C5772
Accurately ripped (confidence 4) [63351F82]
Copy OK
All tracks accurately ripped
No errors occurred
End of status report

Содержание индексной карты (.CUE)

REM GENRE Baroque
REM DATE 1995
REM DISCID 8E0C0B0E
REM COMMENT "ExactAudioCopy v0.99pb5"
PERFORMER "Petri Alanko, Anssi Mattila, Jukka Rautasalo"
TITLE "Bach, J.S. Flute Sonatas Vol.1 - Petri Alanko, Anssi Mattila, Jukka Rautasalo"
FILE "01 - Bach, J.S. Sonata for Flute and Continuo in E minor, BWV1034 - I. Adagio ma non tanto.wav" WAVE
TRACK 01 AUDIO
TITLE "Bach, J.S. Sonata for Flute and Continuo in E minor, BWV1034 - I. Adagio ma n..."
PERFORMER "Petri Alanko, Anssi Mattila, Jukka Rautasalo"
INDEX 01 00:00:00
TRACK 02 AUDIO
TITLE "Bach, J.S. Sonata for Flute and Continuo in E minor, BWV1034 - II. Allegro"
PERFORMER "Petri Alanko, Anssi Mattila, Jukka Rautasalo"
INDEX 00 02:51:60
FILE "02 - Bach, J.S. Sonata for Flute and Continuo in E minor, BWV1034 - II. Allegro.wav" WAVE
INDEX 01 00:00:00
TRACK 03 AUDIO
TITLE "Bach, J.S. Sonata for Flute and Continuo in E minor, BWV1034 - III. Andante"
PERFORMER "Petri Alanko, Anssi Mattila, Jukka Rautasalo"
INDEX 00 02:34:24
FILE "03 - Bach, J.S. Sonata for Flute and Continuo in E minor, BWV1034 - III. Andante.wav" WAVE
INDEX 01 00:00:00
TRACK 04 AUDIO
TITLE "Bach, J.S. Sonata for Flute and Continuo in E minor, BWV1034 - IV. Allegro"
PERFORMER "Petri Alanko, Anssi Mattila, Jukka Rautasalo"
INDEX 00 03:14:70
FILE "04 - Bach, J.S. Sonata for Flute and Continuo in E minor, BWV1034 - IV. Allegro.wav" WAVE
INDEX 01 00:00:00
TRACK 05 AUDIO
TITLE "Bach, J.S. Sonata for Flute and Harpsichord in E flat major, BWV1031 - I. All..."
PERFORMER "Petri Alanko, Anssi Mattila, Jukka Rautasalo"
INDEX 00 04:27:18
FILE "05 - Bach, J.S. Sonata for Flute and Harpsichord in E flat major, BWV1031 - I. Allegro moderato.wav" WAVE
INDEX 01 00:00:00
TRACK 06 AUDIO
TITLE "Bach, J.S. Sonata for Flute and Harpsichord in E flat major, BWV1031 - II. Si..."
PERFORMER "Petri Alanko, Anssi Mattila, Jukka Rautasalo"
INDEX 00 03:26:14
FILE "06 - Bach, J.S. Sonata for Flute and Harpsichord in E flat major, BWV1031 - II. Siciliana.wav" WAVE
INDEX 01 00:00:00
TRACK 07 AUDIO
TITLE "Bach, J.S. Sonata for Flute and Harpsichord in E flat major, BWV1031 - III. A..."
PERFORMER "Petri Alanko, Anssi Mattila, Jukka Rautasalo"
INDEX 00 02:02:34
FILE "07 - Bach, J.S. Sonata for Flute and Harpsichord in E flat major, BWV1031 - III. Allegro.wav" WAVE
INDEX 01 00:00:00
TRACK 08 AUDIO
TITLE "Bach, J.S. Partita for Solo Flute in A minor, BWV1013 - I. Allemande"
PERFORMER "Petri Alanko, Anssi Mattila, Jukka Rautasalo"
INDEX 00 04:19:43
FILE "08 - Bach, J.S. Partita for Solo Flute in A minor, BWV1013 - I. Allemande.wav" WAVE
INDEX 01 00:00:00
FILE "09 - Bach, J.S. Partita for Solo Flute in A minor, BWV1013 - II. Corrente.wav" WAVE
TRACK 09 AUDIO
TITLE "Bach, J.S. Partita for Solo Flute in A minor, BWV1013 - II. Corrente"
PERFORMER "Petri Alanko, Anssi Mattila, Jukka Rautasalo"
INDEX 01 00:00:00
TRACK 10 AUDIO
TITLE "Bach, J.S. Partita for Solo Flute in A minor, BWV1013 - III. Sarabande"
PERFORMER "Petri Alanko, Anssi Mattila, Jukka Rautasalo"
INDEX 00 03:31:23
FILE "10 - Bach, J.S. Partita for Solo Flute in A minor, BWV1013 - III. Sarabande.wav" WAVE
INDEX 01 00:00:00
TRACK 11 AUDIO
TITLE "Bach, J.S. Partita for Solo Flute in A minor, BWV1013 - IV. Bourrйe Anglaise"
PERFORMER "Petri Alanko, Anssi Mattila, Jukka Rautasalo"
INDEX 00 04:55:64
FILE "11 - Bach, J.S. Partita for Solo Flute in A minor, BWV1013 - IV. Bourrйe Anglaise.wav" WAVE
INDEX 01 00:00:00
TRACK 12 AUDIO
TITLE "Bach, J.S. Sonata for Flute and Harpsichord in A major, BWV1032 - I. Vivace"
PERFORMER "Petri Alanko, Anssi Mattila, Jukka Rautasalo"
INDEX 00 02:33:66
FILE "12 - Bach, J.S. Sonata for Flute and Harpsichord in A major, BWV1032 - I. Vivace.wav" WAVE
INDEX 01 00:00:00
TRACK 13 AUDIO
TITLE "Bach, J.S. Sonata for Flute and Harpsichord in A major, BWV1032 - II. Largo e..."
PERFORMER "Petri Alanko, Anssi Mattila, Jukka Rautasalo"
INDEX 00 04:09:02
FILE "13 - Bach, J.S. Sonata for Flute and Harpsichord in A major, BWV1032 - II. Largo e dolce.wav" WAVE
INDEX 01 00:00:00
FILE "14 - Bach, J.S. Sonata for Flute and Harpsichord in A major, BWV1032 - III. Allegro.wav" WAVE
TRACK 14 AUDIO
TITLE "Bach, J.S. Sonata for Flute and Harpsichord in A major, BWV1032 - III. Allegro"
PERFORMER "Petri Alanko, Anssi Mattila, Jukka Rautasalo"
INDEX 01 00:00:00
Доп. информация: Vol.1 - https://78.24.219.58:1500/viewtopic.php?t=4938986
Vol.2 - https://78.24.219.58:1500/viewtopic.php?t=4939001



Показать сообщения:    

Текущее время: 19-Янв 16:03

Часовой пояс: UTC + 3


Вы не можете начинать темы
Вы не можете отвечать на сообщения
Вы не можете редактировать свои сообщения
Вы не можете удалять свои сообщения
Вы не можете голосовать в опросах
Вы не можете прикреплять файлы к сообщениям
Вы не можете скачивать файлы