(Classical) Bach, J.S. - Flute Sonatas, Vol.2 (Petri Alanko, Anssi Mattila, Jukka Rautasalo) - 1996, FLAC (tracks+.cue) lossless


 

[Цитировать]

Bach, J.S. - Flute Sonatas, Vol.2 (Petri Alanko, Anssi Mattila, Jukka Rautasalo)
Жанр: Classical
Страна-производитель диска: Germany
Год издания диска: 1996
Издатель (лейбл): Naxos
Номер по каталогу: 8.553755
Дата записи: 1995
Аудиокодек: FLAC
Тип рипа: tracks+.cue
Битрейт аудио: lossless
Продолжительность: 58^51
Источник: собственный рип
сайт-источник/ник/другое: Из личной коллекции
Наличие сканов в содержимом раздачи: да
Треклист:
Bach, Johann Sebastian
Flute Sonata in B Minor, BWV 1030
1. I. Andante 00:07:22
2. II. Largo e dolce 00:03:43
3. III. Presto 00:05:42
Flute Sonata in E Major, BWV 1035
4. I. Adagio ma non tanto 00:02:15
5. II. Allegro 00:02:56
6. III. Siciliana 00:03:14
7. IV. Allegro assai 00:02:56
Flute Sonata in G Minor, BWV 1020 (attrib. to C.P.E. Bach, H. 542.5)
8. I. Allegro 00:03:54
9. II. Adagio 00:02:47
10. III. Allegro 00:04:55
Flute Sonata in C Major, BWV 1033
11. I. Andante: Presto 00:01:26
12. II. Allegro 00:02:24
13. III. Adagio 00:01:33
14. IV. Menuet I and II 00:02:49
Trio Sonata in G Major, BWV 1039
15. I. Adagio 00:02:56
16. II. Allegro ma non presto 00:03:15
17. III. Adagio e piano 00:01:55
18. IV. Presto 00:02:49
Исполнители:
Anssi Mattila (harpsichord), Jukka Rautasalo (cello), Petri Alanko (flute)

Лог создания рипа

Exact Audio Copy V0.99 prebeta 5 from 4. May 2009
EAC extraction logfile from 19. March 2012, 11:14
P. Alanko / Bach J.S. - Complete flute sonatas, Vol.2
Used drive : PLEXTOR DVDR PX-800A Adapter: 1 ID: 0
Read mode : Secure
Utilize accurate stream : Yes
Defeat audio cache : Yes
Make use of C2 pointers : No
Read offset correction : 48
Overread into Lead-In and Lead-Out : No
Fill up missing offset samples with silence : Yes
Delete leading and trailing silent blocks : No
Null samples used in CRC calculations : No
Used interface : Native Win32 interface for Win NT & 2000
Gap handling : Appended to previous track
Used output format : User Defined Encoder
Selected bitrate : 1024 kBit/s
Quality : High
Add ID3 tag : No
Command line compressor : C:\Program Files\Exact Audio Copy\FLAC\FLAC.EXE
Additional command line options : -8 -V -T "ARTIST=%a" -T "TITLE=%t" -T "ALBUM=%g" -T "DATE=%y" -T "TRACKNUMBER=%n" -T "GENRE=%m" -T "COMMENT=%e" %s -o %d
TOC of the extracted CD
Track | Start | Length | Start sector | End sector
---------------------------------------------------------
1 | 0:00.00 | 7:22.02 | 0 | 33151
2 | 7:22.02 | 3:43.53 | 33152 | 49929
3 | 11:05.55 | 5:41.32 | 49930 | 75536
4 | 16:47.12 | 2:15.20 | 75537 | 85681
5 | 19:02.32 | 2:56.03 | 85682 | 98884
6 | 21:58.35 | 3:13.70 | 98885 | 113429
7 | 25:12.30 | 2:55.47 | 113430 | 126601
8 | 28:08.02 | 3:54.13 | 126602 | 144164
9 | 32:02.15 | 2:46.65 | 144165 | 156679
10 | 34:49.05 | 4:55.32 | 156680 | 178836
11 | 39:44.37 | 1:25.43 | 178837 | 185254
12 | 41:10.05 | 2:24.00 | 185255 | 196054
13 | 43:34.05 | 1:33.65 | 196055 | 203094
14 | 45:07.70 | 2:48.55 | 203095 | 215749
15 | 47:56.50 | 2:56.07 | 215750 | 228956
16 | 50:52.57 | 3:14.52 | 228957 | 243558
17 | 54:07.34 | 1:55.08 | 243559 | 252191
18 | 56:02.42 | 2:48.70 | 252192 | 264861
Track 1
Filename E:\1111\Bach,J.S.Flute_Sonatas,Vol.2-Petri_Alanko,Anssi_Mattila,Jukka_Rautasalo(Naxos,8.553755)\01 - Sonata in B minor, BWV 1030- Andante.wav
Pre-gap length 0:00:02.00
Peak level 43.4 %
Track quality 99.9 %
Test CRC CADCA463
Copy CRC CADCA463
Accurately ripped (confidence 3) [9E0CDFF3]
Copy OK
Track 2
Filename E:\1111\Bach,J.S.Flute_Sonatas,Vol.2-Petri_Alanko,Anssi_Mattila,Jukka_Rautasalo(Naxos,8.553755)\02 - Sonata in B minor, BWV 1030- Largo e dolce.wav
Pre-gap length 0:00:01.51
Peak level 46.2 %
Track quality 100.0 %
Test CRC E080F836
Copy CRC E080F836
Accurately ripped (confidence 3) [6AB9B62E]
Copy OK
Track 3
Filename E:\1111\Bach,J.S.Flute_Sonatas,Vol.2-Petri_Alanko,Anssi_Mattila,Jukka_Rautasalo(Naxos,8.553755)\03 - Sonata in B minor, BWV 1030- Presto.wav
Pre-gap length 0:00:04.45
Peak level 45.9 %
Track quality 99.9 %
Test CRC B41046BC
Copy CRC B41046BC
Accurately ripped (confidence 3) [B3826A1E]
Copy OK
Track 4
Filename E:\1111\Bach,J.S.Flute_Sonatas,Vol.2-Petri_Alanko,Anssi_Mattila,Jukka_Rautasalo(Naxos,8.553755)\04 - Sonata in E major, BWV 1035- Adagio ma non tanto.wav
Pre-gap length 0:00:06.57
Peak level 38.7 %
Track quality 100.0 %
Test CRC 87745157
Copy CRC 87745157
Accurately ripped (confidence 3) [732C1A2A]
Copy OK
Track 5
Filename E:\1111\Bach,J.S.Flute_Sonatas,Vol.2-Petri_Alanko,Anssi_Mattila,Jukka_Rautasalo(Naxos,8.553755)\05 - Sonata in E major, BWV 1035- Allegro.wav
Pre-gap length 0:00:02.00
Peak level 46.9 %
Track quality 100.0 %
Test CRC C873E12D
Copy CRC C873E12D
Accurately ripped (confidence 3) [4BFCB1A7]
Copy OK
Track 6
Filename E:\1111\Bach,J.S.Flute_Sonatas,Vol.2-Petri_Alanko,Anssi_Mattila,Jukka_Rautasalo(Naxos,8.553755)\06 - Sonata in E major, BWV 1035- Siciliana.wav
Pre-gap length 0:00:02.20
Peak level 45.0 %
Track quality 99.9 %
Test CRC 5B11778F
Copy CRC 5B11778F
Accurately ripped (confidence 3) [33267394]
Copy OK
Track 7
Filename E:\1111\Bach,J.S.Flute_Sonatas,Vol.2-Petri_Alanko,Anssi_Mattila,Jukka_Rautasalo(Naxos,8.553755)\07 - Sonata in E major, BWV 1035- Allegro assai.wav
Pre-gap length 0:00:02.74
Peak level 42.2 %
Track quality 99.9 %
Test CRC 9D1C2331
Copy CRC 9D1C2331
Accurately ripped (confidence 3) [CA5300A4]
Copy OK
Track 8
Filename E:\1111\Bach,J.S.Flute_Sonatas,Vol.2-Petri_Alanko,Anssi_Mattila,Jukka_Rautasalo(Naxos,8.553755)\08 - Sonata in G minor, BWV 1020- Allegro.wav
Pre-gap length 0:00:06.56
Peak level 33.3 %
Track quality 100.0 %
Test CRC 85381DCA
Copy CRC 85381DCA
Accurately ripped (confidence 3) [BB479BA2]
Copy OK
Track 9
Filename E:\1111\Bach,J.S.Flute_Sonatas,Vol.2-Petri_Alanko,Anssi_Mattila,Jukka_Rautasalo(Naxos,8.553755)\09 - Sonata in G minor, BWV 1020- Adagio.wav
Pre-gap length 0:00:03.54
Peak level 29.6 %
Track quality 100.0 %
Test CRC 01D488C4
Copy CRC 01D488C4
Accurately ripped (confidence 3) [B9DDB617]
Copy OK
Track 10
Filename E:\1111\Bach,J.S.Flute_Sonatas,Vol.2-Petri_Alanko,Anssi_Mattila,Jukka_Rautasalo(Naxos,8.553755)\10 - Sonata in G minor, BWV 1020- Allegro.wav
Pre-gap length 0:00:01.48
Peak level 43.7 %
Track quality 100.0 %
Test CRC C7E5AD89
Copy CRC C7E5AD89
Accurately ripped (confidence 3) [18526916]
Copy OK
Track 11
Filename E:\1111\Bach,J.S.Flute_Sonatas,Vol.2-Petri_Alanko,Anssi_Mattila,Jukka_Rautasalo(Naxos,8.553755)\11 - Sonata in C major, BWV 1033- Andante - Presto.wav
Pre-gap length 0:00:06.19
Peak level 32.8 %
Track quality 100.0 %
Test CRC 325EAA75
Copy CRC 325EAA75
Accurately ripped (confidence 3) [BF84BF12]
Copy OK
Track 12
Filename E:\1111\Bach,J.S.Flute_Sonatas,Vol.2-Petri_Alanko,Anssi_Mattila,Jukka_Rautasalo(Naxos,8.553755)\12 - Sonata in C major, BWV 1033- Allegro.wav
Peak level 35.6 %
Track quality 100.0 %
Test CRC 377F3978
Copy CRC 377F3978
Accurately ripped (confidence 3) [F8721B47]
Copy OK
Track 13
Filename E:\1111\Bach,J.S.Flute_Sonatas,Vol.2-Petri_Alanko,Anssi_Mattila,Jukka_Rautasalo(Naxos,8.553755)\13 - Sonata in C major, BWV 1033- Adagio.wav
Pre-gap length 0:00:01.35
Peak level 38.9 %
Track quality 100.0 %
Test CRC A5A55624
Copy CRC A5A55624
Accurately ripped (confidence 3) [7A17D1A8]
Copy OK
Track 14
Filename E:\1111\Bach,J.S.Flute_Sonatas,Vol.2-Petri_Alanko,Anssi_Mattila,Jukka_Rautasalo(Naxos,8.553755)\14 - Sonata in C major, BWV 1033- Menuet I & II.wav
Pre-gap length 0:00:02.56
Peak level 35.4 %
Track quality 100.0 %
Test CRC FA3FD247
Copy CRC FA3FD247
Accurately ripped (confidence 3) [2113E39F]
Copy OK
Track 15
Filename E:\1111\Bach,J.S.Flute_Sonatas,Vol.2-Petri_Alanko,Anssi_Mattila,Jukka_Rautasalo(Naxos,8.553755)\15 - Trio sonata in G major, BWV 1039- Adagio.wav
Pre-gap length 0:00:07.40
Peak level 47.3 %
Track quality 100.0 %
Test CRC E9416AEC
Copy CRC E9416AEC
Accurately ripped (confidence 3) [D7C3BE4C]
Copy OK
Track 16
Filename E:\1111\Bach,J.S.Flute_Sonatas,Vol.2-Petri_Alanko,Anssi_Mattila,Jukka_Rautasalo(Naxos,8.553755)\16 - Trio sonata in G major, BWV 1039- Allegro ma non presto.wav
Peak level 47.9 %
Track quality 100.0 %
Test CRC E39DFD0A
Copy CRC E39DFD0A
Accurately ripped (confidence 3) [AB8C1ECB]
Copy OK
Track 17
Filename E:\1111\Bach,J.S.Flute_Sonatas,Vol.2-Petri_Alanko,Anssi_Mattila,Jukka_Rautasalo(Naxos,8.553755)\17 - Trio sonata in G major, BWV 1039- Adagio e piano.wav
Pre-gap length 0:00:02.12
Peak level 29.7 %
Track quality 100.0 %
Test CRC 59DB69CB
Copy CRC 59DB69CB
Accurately ripped (confidence 2) [0AA099FF]
Copy OK
Track 18
Filename E:\1111\Bach,J.S.Flute_Sonatas,Vol.2-Petri_Alanko,Anssi_Mattila,Jukka_Rautasalo(Naxos,8.553755)\18 - Trio sonata in G major, BWV 1039- Presto.wav
Peak level 64.9 %
Track quality 100.0 %
Test CRC 43A37CA4
Copy CRC 43A37CA4
Accurately ripped (confidence 3) [4DFE7ADD]
Copy OK
All tracks accurately ripped
No errors occurred
End of status report

Содержание индексной карты (.CUE)

REM GENRE Baroque
REM DATE 1995
REM DISCID FC0DCB12
REM COMMENT "ExactAudioCopy v0.99pb5"
PERFORMER "P. Alanko"
TITLE "Bach J.S. - Complete flute sonatas, Vol.2"
FILE "01 - Sonata in B minor, BWV 1030- Andante.wav" WAVE
TRACK 01 AUDIO
TITLE "Sonata in B minor, BWV 1030: Andante"
PERFORMER "P. Alanko"
INDEX 01 00:00:00
TRACK 02 AUDIO
TITLE "Sonata in B minor, BWV 1030: Largo e dolce"
PERFORMER "P. Alanko"
INDEX 00 07:20:26
FILE "02 - Sonata in B minor, BWV 1030- Largo e dolce.wav" WAVE
INDEX 01 00:00:00
TRACK 03 AUDIO
TITLE "Sonata in B minor, BWV 1030: Presto"
PERFORMER "P. Alanko"
INDEX 00 03:39:08
FILE "03 - Sonata in B minor, BWV 1030- Presto.wav" WAVE
INDEX 01 00:00:00
TRACK 04 AUDIO
TITLE "Sonata in E major, BWV 1035: Adagio ma non tanto"
PERFORMER "P. Alanko"
INDEX 00 05:34:50
FILE "04 - Sonata in E major, BWV 1035- Adagio ma non tanto.wav" WAVE
INDEX 01 00:00:00
TRACK 05 AUDIO
TITLE "Sonata in E major, BWV 1035: Allegro"
PERFORMER "P. Alanko"
INDEX 00 02:13:20
FILE "05 - Sonata in E major, BWV 1035- Allegro.wav" WAVE
INDEX 01 00:00:00
TRACK 06 AUDIO
TITLE "Sonata in E major, BWV 1035: Siciliana"
PERFORMER "P. Alanko"
INDEX 00 02:53:58
FILE "06 - Sonata in E major, BWV 1035- Siciliana.wav" WAVE
INDEX 01 00:00:00
TRACK 07 AUDIO
TITLE "Sonata in E major, BWV 1035: Allegro assai"
PERFORMER "P. Alanko"
INDEX 00 03:10:71
FILE "07 - Sonata in E major, BWV 1035- Allegro assai.wav" WAVE
INDEX 01 00:00:00
TRACK 08 AUDIO
TITLE "Sonata in G minor, BWV 1020: Allegro"
PERFORMER "P. Alanko"
INDEX 00 02:48:66
FILE "08 - Sonata in G minor, BWV 1020- Allegro.wav" WAVE
INDEX 01 00:00:00
TRACK 09 AUDIO
TITLE "Sonata in G minor, BWV 1020: Adagio"
PERFORMER "P. Alanko"
INDEX 00 03:50:34
FILE "09 - Sonata in G minor, BWV 1020- Adagio.wav" WAVE
INDEX 01 00:00:00
TRACK 10 AUDIO
TITLE "Sonata in G minor, BWV 1020: Allegro"
PERFORMER "P. Alanko"
INDEX 00 02:45:17
FILE "10 - Sonata in G minor, BWV 1020- Allegro.wav" WAVE
INDEX 01 00:00:00
TRACK 11 AUDIO
TITLE "Sonata in C major, BWV 1033: Andante - Presto"
PERFORMER "P. Alanko"
INDEX 00 04:49:13
FILE "11 - Sonata in C major, BWV 1033- Andante - Presto.wav" WAVE
INDEX 01 00:00:00
FILE "12 - Sonata in C major, BWV 1033- Allegro.wav" WAVE
TRACK 12 AUDIO
TITLE "Sonata in C major, BWV 1033: Allegro"
PERFORMER "P. Alanko"
INDEX 01 00:00:00
TRACK 13 AUDIO
TITLE "Sonata in C major, BWV 1033: Adagio"
PERFORMER "P. Alanko"
INDEX 00 02:22:40
FILE "13 - Sonata in C major, BWV 1033- Adagio.wav" WAVE
INDEX 01 00:00:00
TRACK 14 AUDIO
TITLE "Sonata in C major, BWV 1033: Menuet I & II"
PERFORMER "P. Alanko"
INDEX 00 01:31:09
FILE "14 - Sonata in C major, BWV 1033- Menuet I & II.wav" WAVE
INDEX 01 00:00:00
TRACK 15 AUDIO
TITLE "Trio sonata in G major, BWV 1039: Adagio"
PERFORMER "P. Alanko"
INDEX 00 02:41:15
FILE "15 - Trio sonata in G major, BWV 1039- Adagio.wav" WAVE
INDEX 01 00:00:00
FILE "16 - Trio sonata in G major, BWV 1039- Allegro ma non presto.wav" WAVE
TRACK 16 AUDIO
TITLE "Trio sonata in G major, BWV 1039: Allegro ma non presto"
PERFORMER "P. Alanko"
INDEX 01 00:00:00
TRACK 17 AUDIO
TITLE "Trio sonata in G major, BWV 1039: Adagio e piano"
PERFORMER "P. Alanko"
INDEX 00 03:12:40
FILE "17 - Trio sonata in G major, BWV 1039- Adagio e piano.wav" WAVE
INDEX 01 00:00:00
FILE "18 - Trio sonata in G major, BWV 1039- Presto.wav" WAVE
TRACK 18 AUDIO
TITLE "Trio sonata in G major, BWV 1039: Presto"
PERFORMER "P. Alanko"
INDEX 01 00:00:00
Доп. информация: Vol.1 - https://78.24.219.58:1500/viewtopic.php?t=4938986
Vol.2 - https://78.24.219.58:1500/viewtopic.php?t=4939001



Показать сообщения:    

Текущее время: 11-Дек 03:20

Часовой пояс: UTC + 3


Вы не можете начинать темы
Вы не можете отвечать на сообщения
Вы не можете редактировать свои сообщения
Вы не можете удалять свои сообщения
Вы не можете голосовать в опросах
Вы не можете прикреплять файлы к сообщениям
Вы не можете скачивать файлы