(Classical) Bach,J.S. - Harpsichord Concerto No.1; Partita No.2 Marga Henschel, Bernhard Guller, Conrad von der Goltz) - 1998, FLAC (tracks+.cue) lossless


 

[Цитировать]

Bach,J.S. - Harpsichord Concerto No.1; Partita No.2 (Marga Henschel, Bernhard Guller, Conrad von der Goltz)
Жанр: Classical
Страна-производитель диска: Holland
Год издания диска: 1998
Издатель (лейбл): Weton-Wesgram B.V.
Номер по каталогу: PAL 509C
Дата записи: 1998
Аудиокодек: FLAC
Тип рипа: tracks+.cue
Битрейт аудио: lossless
Продолжительность: 60:10
Источник: собственный рип
сайт-источник/ник/другое: Из личной коллекции
Наличие сканов в содержимом раздачи: да
Треклист:
Bach, J.S.
1-3. Harpsichord Concerto No.1
4-5. from Partita No.2 for Violin Solo
Исполнители:
1-3 Pro Arte Chamber Orchestra
Bernhard Guller - conductor,
Marga Henschel - harpsichord
4-5 Conrad von der Goltz - violin

Лог создания рипа

Exact Audio Copy V0.99 prebeta 5 from 4. May 2009
EAC extraction logfile from 24. November 2009, 15:27
Bernhard Guller & Marga Henschel; Conrad von der Goltz / Bach,J.S. Harpsichord Concerto No.1; Partita No.2
Used drive : PLEXTOR DVDR PX-800A Adapter: 1 ID: 0
Read mode : Secure
Utilize accurate stream : Yes
Defeat audio cache : Yes
Make use of C2 pointers : No
Read offset correction : 48
Overread into Lead-In and Lead-Out : No
Fill up missing offset samples with silence : Yes
Delete leading and trailing silent blocks : No
Null samples used in CRC calculations : No
Used interface : Native Win32 interface for Win NT & 2000
Gap handling : Appended to previous track
Used output format : User Defined Encoder
Selected bitrate : 1024 kBit/s
Quality : High
Add ID3 tag : No
Command line compressor : C:\Program Files\Exact Audio Copy\FLAC\FLAC.EXE
Additional command line options : -6 -V -T "ARTIST=%a" -T "TITLE=%t" -T "ALBUM=%g" -T "DATE=%y" -T "TRACKNUMBER=%n" -T "GENRE=%m" -T "COMMENT=%e" %s -o %d
TOC of the extracted CD
Track | Start | Length | Start sector | End sector
---------------------------------------------------------
1 | 0:00.00 | 8:35.67 | 0 | 38691
2 | 8:35.67 | 7:54.29 | 38692 | 74270
3 | 16:30.21 | 8:36.65 | 74271 | 113035
4 | 25:07.11 | 5:20.12 | 113036 | 137047
5 | 30:27.23 | 16:00.15 | 137048 | 209062
Track 1
Filename E:\1111\Bach,J.S.Harpsichord_Concerto_No.1;Partita_No.2-B.Guller,C.von_der_Goltz\01 - Harpsichord Concerto No.1, D Minor, BWM 1052 - Allegro.wav
Pre-gap length 0:00:02.00
Peak level 100.0 %
Track quality 100.0 %
Test CRC 3DE433FB
Copy CRC 3DE433FB
Track not present in AccurateRip database
Copy OK
Track 2
Filename E:\1111\Bach,J.S.Harpsichord_Concerto_No.1;Partita_No.2-B.Guller,C.von_der_Goltz\02 - Adagio.wav
Pre-gap length 0:00:02.00
Peak level 88.6 %
Track quality 100.0 %
Test CRC 98AECD4A
Copy CRC 98AECD4A
Track not present in AccurateRip database
Copy OK
Track 3
Filename E:\1111\Bach,J.S.Harpsichord_Concerto_No.1;Partita_No.2-B.Guller,C.von_der_Goltz\03 - Allegro.wav
Pre-gap length 0:00:01.74
Peak level 100.0 %
Track quality 100.0 %
Test CRC B77208AA
Copy CRC B77208AA
Track not present in AccurateRip database
Copy OK
Track 4
Filename E:\1111\Bach,J.S.Harpsichord_Concerto_No.1;Partita_No.2-B.Guller,C.von_der_Goltz\04 - Partita No.2 for Violin, D Minor, BWV 1004 - Allemanda.wav
Pre-gap length 0:00:02.00
Peak level 75.8 %
Track quality 100.0 %
Test CRC 8F278278
Copy CRC 8F278278
Track not present in AccurateRip database
Copy OK
Track 5
Filename E:\1111\Bach,J.S.Harpsichord_Concerto_No.1;Partita_No.2-B.Guller,C.von_der_Goltz\05 - Ciaccona.wav
Pre-gap length 0:00:02.00
Peak level 75.8 %
Track quality 100.0 %
Test CRC 7F1511AF
Copy CRC 7F1511AF
Track not present in AccurateRip database
Copy OK
None of the tracks are present in the AccurateRip database
No errors occurred
End of status report

Содержание индексной карты (.CUE)

REM GENRE Classical
REM DATE 1998
REM DISCID 460AE305
REM COMMENT "ExactAudioCopy v0.99pb5"
PERFORMER "Bernhard Guller & Marga Henschel; Conrad von der Goltz"
TITLE "Bach,J.S. Harpsichord Concerto No.1; Partita No.2"
FILE "01 - Harpsichord Concerto No.1, D Minor, BWM 1052 - Allegro.wav" WAVE
TRACK 01 AUDIO
TITLE "Harpsichord Concerto No.1, D Minor, BWM 1052 - Allegro"
PERFORMER "Bernhard Guller & Marga Henschel; Conrad von der Goltz"
INDEX 01 00:00:00
TRACK 02 AUDIO
TITLE "Adagio"
PERFORMER "Bernhard Guller & Marga Henschel; Conrad von der Goltz"
INDEX 00 08:33:67
FILE "02 - Adagio.wav" WAVE
INDEX 01 00:00:00
TRACK 03 AUDIO
TITLE "Allegro"
PERFORMER "Bernhard Guller & Marga Henschel; Conrad von der Goltz"
INDEX 00 07:52:30
FILE "03 - Allegro.wav" WAVE
INDEX 01 00:00:00
TRACK 04 AUDIO
TITLE "Partita No.2 for Violin, D Minor, BWV 1004 - Allemanda"
PERFORMER "Bernhard Guller & Marga Henschel; Conrad von der Goltz"
INDEX 00 08:34:65
FILE "04 - Partita No.2 for Violin, D Minor, BWV 1004 - Allemanda.wav" WAVE
INDEX 01 00:00:00
TRACK 05 AUDIO
TITLE "Ciaccona"
PERFORMER "Bernhard Guller & Marga Henschel; Conrad von der Goltz"
INDEX 00 05:18:12
FILE "05 - Ciaccona.wav" WAVE
INDEX 01 00:00:00



Показать сообщения:    

Текущее время: 10-Дек 13:49

Часовой пояс: UTC + 3


Вы не можете начинать темы
Вы не можете отвечать на сообщения
Вы не можете редактировать свои сообщения
Вы не можете удалять свои сообщения
Вы не можете голосовать в опросах
Вы не можете прикреплять файлы к сообщениям
Вы не можете скачивать файлы