(Classical) Morton Feldman - Patterns in a Chromatic Field: music for cello - Marco Simonacci, Giancarlo Simonacci, Fabio Frapparelli, Paola Ronchetti, Ilaria Severo - 2013, FLAC (image+.cue) lossless


 

[Цитировать]

Morton Feldman - Patterns in a Chromatic Field: music for cello - Marco Simonacci, Giancarlo Simonacci, Fabio Frapparelli, Paola Ronchetti, Ilaria Severo
Жанр: Classical
Год издания диска: 2013
Издатель (лейбл): Brilliant Classics
Номер по каталогу: 9401
Дата записи: 2012
Аудиокодек: FLAC
Тип рипа: image+.cue
Битрейт аудио: lossless
Продолжительность: 119:27
Источник: собственный рип
Наличие сканов в содержимом раздачи: да
Треклист:
Morton Feldman (1926-1987)
Music for Cello
CD1
[1]-[2] Two Pieces (1948) for cello and piano
[3] Projection 1 (1950) for cello solo
[4]-[7] Four Songs to Poems by E.E.Cummings (1951) for voice, cello and piano
Paola Ronchetti soprano
[8] Intersection 4 (1953) for cello solo
[9] Two Instruments (1958) for cello and horn
Fabio Frapparelli horn
[10] Duration 2 (1960) for cello and piano
[11] Voices and Cello (1973) for two female voices and cello
Paola Ronchetti, Ilaria Severo sopranos
[12]-[13] Patterns in a Chromatic Field (1981) for cello and piano
CD2
[1]-[5] Patterns in a Chromatic Field (conclusion)
Исполнители:
Marco Simonacci cello
Giancarlo Simonacci piano
Fabio Frapparelli horn
Paola Ronchetti soprano
Ilaria Severo soprano

Лог создания рипа: CD1

Exact Audio Copy V1.0 beta 3 from 29. August 2011
EAC extraction logfile from 22. October 2014, 1:38
Marco Simonacci, Giancarlo Simonacci / Feldman - Music for Cello - CD1
Used drive : HL-DT-STDVDRAM GU70N Adapter: 0 ID: 0
Read mode : Secure
Utilize accurate stream : Yes
Defeat audio cache : Yes
Make use of C2 pointers : No
Read offset correction : 48
Overread into Lead-In and Lead-Out : No
Fill up missing offset samples with silence : Yes
Delete leading and trailing silent blocks : No
Null samples used in CRC calculations : Yes
Used interface : Native Win32 interface for Win NT & 2000
Used output format : User Defined Encoder
Selected bitrate : 128 kBit/s
Quality : High
Add ID3 tag : No
Command line compressor : C:\Program Files (x86)\Exact Audio Copy\Flac\flac.exe
Additional command line options : -V -8 -T "Date=%year%" -T "Genre=%genre%" %source%
TOC of the extracted CD
Track | Start | Length | Start sector | End sector
---------------------------------------------------------
1 | 0:00.00 | 0:39.51 | 0 | 2975
2 | 0:39.51 | 1:27.21 | 2976 | 9521
3 | 2:06.72 | 3:20.61 | 9522 | 24582
4 | 5:27.58 | 0:40.54 | 24583 | 27636
5 | 6:08.37 | 0:28.41 | 27637 | 29777
6 | 6:37.03 | 1:11.73 | 29778 | 35175
7 | 7:49.01 | 0:45.56 | 35176 | 38606
8 | 8:34.57 | 4:23.23 | 38607 | 58354
9 | 12:58.05 | 5:53.28 | 58355 | 84857
10 | 18:51.33 | 5:12.18 | 84858 | 108275
11 | 24:03.51 | 6:03.18 | 108276 | 135518
12 | 30:06.69 | 10:25.33 | 135519 | 182426
13 | 40:32.27 | 14:49.17 | 182427 | 249118
Range status and errors
Selected range
Filename C:\temp\Feldman - Music for Cello\Feldman - Music for Cello - CD1.wav
Peak level 95.5 %
Extraction speed 5.1 X
Range quality 100.0 %
Test CRC 5D3E0FB8
Copy CRC 5D3E0FB8
Copy OK
No errors occurred
AccurateRip summary
Track 1 accurately ripped (confidence 1) [8D062425] (AR v2)
Track 2 accurately ripped (confidence 1) [F838CB35] (AR v2)
Track 3 accurately ripped (confidence 1) [4E0BA92A] (AR v2)
Track 4 accurately ripped (confidence 1) [89E91CB3] (AR v2)
Track 5 accurately ripped (confidence 1) [463DF2DB] (AR v2)
Track 6 accurately ripped (confidence 1) [E1C2784F] (AR v2)
Track 7 accurately ripped (confidence 1) [FCB2EECF] (AR v2)
Track 8 accurately ripped (confidence 1) [6D998A65] (AR v2)
Track 9 accurately ripped (confidence 1) [161BDC6A] (AR v2)
Track 10 accurately ripped (confidence 1) [062662F7] (AR v2)
Track 11 accurately ripped (confidence 1) [6F9E3E06] (AR v2)
Track 12 accurately ripped (confidence 1) [25458502] (AR v2)
Track 13 accurately ripped (confidence 1) [ADA9480E] (AR v2)
All tracks accurately ripped
End of status report
==== Log checksum 64412444EBD723D152F82B19B08BF754F58B23B9649074101156F69A7A7F0AE8 ====

Лог создания рипа: CD2

Exact Audio Copy V1.0 beta 3 from 29. August 2011
EAC extraction logfile from 22. October 2014, 8:42
Marco Simonacci, Giancarlo Simonacci / Feldman - Music for Cello - CD2
Used drive : HL-DT-STDVDRAM GU70N Adapter: 0 ID: 0
Read mode : Secure
Utilize accurate stream : Yes
Defeat audio cache : Yes
Make use of C2 pointers : No
Read offset correction : 48
Overread into Lead-In and Lead-Out : No
Fill up missing offset samples with silence : Yes
Delete leading and trailing silent blocks : No
Null samples used in CRC calculations : Yes
Used interface : Native Win32 interface for Win NT & 2000
Used output format : User Defined Encoder
Selected bitrate : 128 kBit/s
Quality : High
Add ID3 tag : No
Command line compressor : C:\Program Files (x86)\Exact Audio Copy\Flac\flac.exe
Additional command line options : -V -8 -T "Date=%year%" -T "Genre=%genre%" %source%
TOC of the extracted CD
Track | Start | Length | Start sector | End sector
---------------------------------------------------------
1 | 0:00.00 | 11:17.67 | 0 | 50841
2 | 11:17.67 | 15:02.62 | 50842 | 118553
3 | 26:20.54 | 11:14.70 | 118554 | 169173
4 | 37:35.49 | 13:08.61 | 169174 | 228334
5 | 50:44.35 | 13:17.70 | 228335 | 288179
Range status and errors
Selected range
Filename C:\temp\Feldman - Music for Cello\Feldman - Music for Cello - CD2.wav
Peak level 91.0 %
Extraction speed 2.0 X
Range quality 100.0 %
Test CRC 5AD8BE16
Copy CRC 5AD8BE16
Copy OK
No errors occurred
AccurateRip summary
Track 1 accurately ripped (confidence 1) [6ADAA943] (AR v2)
Track 2 accurately ripped (confidence 1) [C311A0F3] (AR v2)
Track 3 accurately ripped (confidence 1) [CAEAEFC2] (AR v2)
Track 4 accurately ripped (confidence 1) [D03ABF58] (AR v2)
Track 5 accurately ripped (confidence 1) [DDDB11E8] (AR v2)
All tracks accurately ripped
End of status report
==== Log checksum C0C09D6331EA200E431EA4CC1EEEE2013AC9717B1AFD201A40222EEBBF6BD36B ====



Показать сообщения:    

Текущее время: 04-Дек 06:48

Часовой пояс: UTC + 3


Вы не можете начинать темы
Вы не можете отвечать на сообщения
Вы не можете редактировать свои сообщения
Вы не можете удалять свои сообщения
Вы не можете голосовать в опросах
Вы не можете прикреплять файлы к сообщениям
Вы не можете скачивать файлы