(Classical) Bach, W.F. - Orchestral Works (Kammerorchester C.P.E. Bach, Hartmut Haenchen) - 2002, FLAC (tracks+.cue) lossless


 

[Цитировать]

Bach, W.F. - Orchestral Works (Kammerorchester C.P.E. Bach, Hartmut Haenchen)
Жанр: Classical
Страна-производитель диска: Netherlands
Год издания диска: 2002
Издатель (лейбл): Brilliant Classics
Номер по каталогу: 99785/6
Дата записи: 1993
Аудиокодек: FLAC
Тип рипа: tracks+.cue
Битрейт аудио: lossless
Продолжительность: 65:17
Источник: собственный рип
сайт-источник/ник/другое: Из личной коллекции
Наличие сканов в содержимом раздачи: да
Треклист:
WILHELM FRIEDEMANN BACH (1710-1784)
Sinfonia for strings in F major (‘Dissonant’), F.67 (BR C2)
01. I. Vivace [00:04:19]
02. II. Andante [00:03:06]
03. III. Allegro [00:03:25]
04. IV. Menuetto I & II [00:02:33]
Sinfonia in F major 'Ertönet, ihr seligen Völker', F. 88 (BR F15)
05. Un poco allegro [00:07:37]
Sinfonia in D minor (‘Adagio and Fugue’), F. 65 (BR C7)
06. Adagio - Allegro e forte [00:09:23]
Sinfonia in D major (used as prelude to cantata ‘Dies ist der Tag’), F.64 (BR C8)
07. I. Allegro e maestoso [00:03:42]
08. II. Andante [00:02:40]
09. III. Vivace [00:03:06]
10. Sinfonia in D major (used to cantata 'Wo geht die Lebensreise hin'), F.91 (BR F12) [00:03:22]
11. Sinfonia in G major (used to cantata 'O Wunder, we kann dieses fassen'), F.92 (BR F2) [00:03:12]
Overture (Suite) for strings & continuo in G minor ‘No. 5' (doubtful), BWV 1070
12. I. Larghetto-un poco Allegro [00:04:50]
13. II. Torneo [00:02:13]
14. III. Aria, adagio [00:03:13]
15. IV. Menuetto alternativo-trio [00:04:38]
16. V. Capriccio [00:03:49]
Исполнители:
Kammerorchester C.P.E. Bach, Hartmut Haenchen

Лог создания рипа

Exact Audio Copy V0.99 prebeta 5 from 4. May 2009
EAC extraction logfile from 4. February 2010, 11:32
Hartmut Haenchen / Bach, Wilhelm Friedemann (1710-1784). Orchestral Works
Used drive : PLEXTOR DVDR PX-800A Adapter: 1 ID: 0
Read mode : Secure
Utilize accurate stream : Yes
Defeat audio cache : Yes
Make use of C2 pointers : No
Read offset correction : 48
Overread into Lead-In and Lead-Out : No
Fill up missing offset samples with silence : Yes
Delete leading and trailing silent blocks : No
Null samples used in CRC calculations : No
Used interface : Native Win32 interface for Win NT & 2000
Gap handling : Appended to previous track
Used output format : User Defined Encoder
Selected bitrate : 1024 kBit/s
Quality : High
Add ID3 tag : No
Command line compressor : C:\Program Files\Exact Audio Copy\FLAC\FLAC.EXE
Additional command line options : -6 -V -T "ARTIST=%a" -T "TITLE=%t" -T "ALBUM=%g" -T "DATE=%y" -T "TRACKNUMBER=%n" -T "GENRE=%m" -T "COMMENT=%e" %s -o %d
TOC of the extracted CD
Track | Start | Length | Start sector | End sector
---------------------------------------------------------
1 | 0:00.00 | 4:19.65 | 0 | 19489
2 | 4:19.65 | 3:06.35 | 19490 | 33474
3 | 7:26.25 | 3:25.20 | 33475 | 48869
4 | 10:51.45 | 2:33.60 | 48870 | 60404
5 | 13:25.30 | 7:37.22 | 60405 | 94701
6 | 21:02.52 | 9:23.58 | 94702 | 136984
7 | 30:26.35 | 3:42.22 | 136985 | 153656
8 | 34:08.57 | 2:40.13 | 153657 | 165669
9 | 36:48.70 | 3:06.17 | 165670 | 179636
10 | 39:55.12 | 3:22.35 | 179637 | 194821
11 | 43:17.47 | 3:12.23 | 194822 | 209244
12 | 46:29.70 | 4:50.52 | 209245 | 231046
13 | 51:20.47 | 2:13.00 | 231047 | 241021
14 | 53:33.47 | 3:13.55 | 241022 | 255551
15 | 56:47.27 | 4:38.40 | 255552 | 276441
16 | 61:25.67 | 3:49.18 | 276442 | 293634
Track 1
Filename E:\1111\Bach,W.F.Orchestral_Works-Hartmut_Haenchen(Brilliant)\01 - Sinfonia in F major -1 Vivace.wav
Pre-gap length 0:00:02.00
Peak level 93.1 %
Track quality 100.0 %
Test CRC 340274D1
Copy CRC 340274D1
Accurately ripped (confidence 8) [C389F6E5]
Copy OK
Track 2
Filename E:\1111\Bach,W.F.Orchestral_Works-Hartmut_Haenchen(Brilliant)\02 - Sinfonia in F major -2 Andante.wav
Peak level 55.5 %
Track quality 100.0 %
Test CRC E6966A2F
Copy CRC E6966A2F
Accurately ripped (confidence 8) [B3B8A021]
Copy OK
Track 3
Filename E:\1111\Bach,W.F.Orchestral_Works-Hartmut_Haenchen(Brilliant)\03 - Sinfonia in F major -3 Allegro.wav
Peak level 66.3 %
Track quality 100.0 %
Test CRC 0177207B
Copy CRC 0177207B
Accurately ripped (confidence 8) [3FC5EEDD]
Copy OK
Track 4
Filename E:\1111\Bach,W.F.Orchestral_Works-Hartmut_Haenchen(Brilliant)\04 - Sinfonia in F -major -4 Menuetto I & II.wav
Peak level 64.4 %
Track quality 100.0 %
Test CRC 66A0C087
Copy CRC 66A0C087
Accurately ripped (confidence 8) [05698A1F]
Copy OK
Track 5
Filename E:\1111\Bach,W.F.Orchestral_Works-Hartmut_Haenchen(Brilliant)\05 - Sinfonia in F major 'Ertonet ihr seligen Volker' - Un poco allegro.wav
Pre-gap length 0:00:05.23
Peak level 71.6 %
Track quality 100.0 %
Test CRC 0D85F213
Copy CRC 0D85F213
Accurately ripped (confidence 8) [E6374E97]
Copy OK
Track 6
Filename E:\1111\Bach,W.F.Orchestral_Works-Hartmut_Haenchen(Brilliant)\06 - Sinfonia in D minor - Adagio-Allegro e forte.wav
Pre-gap length 0:00:04.17
Peak level 98.0 %
Track quality 100.0 %
Test CRC 4600554F
Copy CRC 4600554F
Accurately ripped (confidence 8) [BFD38832]
Copy OK
Track 7
Filename E:\1111\Bach,W.F.Orchestral_Works-Hartmut_Haenchen(Brilliant)\07 - Sinfonia in D major 'Dies ist der Tag' -1 Allegro e maestoso.wav
Pre-gap length 0:00:03.48
Peak level 98.0 %
Track quality 100.0 %
Test CRC 292F135C
Copy CRC 292F135C
Accurately ripped (confidence 8) [3637B0DF]
Copy OK
Track 8
Filename E:\1111\Bach,W.F.Orchestral_Works-Hartmut_Haenchen(Brilliant)\08 - Sinfonia in D major 'Dies ist der Tag' -2 Andante.wav
Peak level 49.4 %
Track quality 100.0 %
Test CRC EAE88CE3
Copy CRC EAE88CE3
Accurately ripped (confidence 8) [EC0844A5]
Copy OK
Track 9
Filename E:\1111\Bach,W.F.Orchestral_Works-Hartmut_Haenchen(Brilliant)\09 - Sinfonia in D major 'Dies ist der Tag' -3 Vivace.wav
Peak level 98.0 %
Track quality 100.0 %
Test CRC 9C146CB3
Copy CRC 9C146CB3
Accurately ripped (confidence 8) [73902BBF]
Copy OK
Track 10
Filename E:\1111\Bach,W.F.Orchestral_Works-Hartmut_Haenchen(Brilliant)\10 - Sinfonia in D major 'Wo geht die Lebensreise hin'.wav
Pre-gap length 0:00:04.02
Peak level 98.0 %
Track quality 100.0 %
Test CRC 6F2176DE
Copy CRC 6F2176DE
Accurately ripped (confidence 8) [4E2A7591]
Copy OK
Track 11
Filename E:\1111\Bach,W.F.Orchestral_Works-Hartmut_Haenchen(Brilliant)\11 - Sinfonia in G major 'O Wunder'.wav
Pre-gap length 0:00:05.10
Peak level 98.0 %
Track quality 100.0 %
Test CRC A9977B5C
Copy CRC A9977B5C
Accurately ripped (confidence 8) [2348F0C8]
Copy OK
Track 12
Filename E:\1111\Bach,W.F.Orchestral_Works-Hartmut_Haenchen(Brilliant)\12 - Suite in G minor ( BWV 1070 ) -1 Larghetto-un poco Allegro.wav
Pre-gap length 0:00:03.55
Peak level 74.3 %
Track quality 100.0 %
Test CRC 313FC474
Copy CRC 313FC474
Accurately ripped (confidence 8) [0CFF3F9B]
Copy OK
Track 13
Filename E:\1111\Bach,W.F.Orchestral_Works-Hartmut_Haenchen(Brilliant)\13 - Suite in G minor ( BWV 1070 ) -2 Torneo.wav
Peak level 77.9 %
Track quality 100.0 %
Test CRC 487E8C8D
Copy CRC 487E8C8D
Accurately ripped (confidence 8) [A6531D50]
Copy OK
Track 14
Filename E:\1111\Bach,W.F.Orchestral_Works-Hartmut_Haenchen(Brilliant)\14 - Suite in G minor ( BWV 1070 ) -3 Aria, adagio.wav
Peak level 68.8 %
Track quality 100.0 %
Test CRC D3282BB6
Copy CRC D3282BB6
Accurately ripped (confidence 8) [F96F1764]
Copy OK
Track 15
Filename E:\1111\Bach,W.F.Orchestral_Works-Hartmut_Haenchen(Brilliant)\15 - Suite in G minor ( BWV 1070 ) -4 Menuetto alternativo-trio.wav
Peak level 55.5 %
Track quality 100.0 %
Test CRC 1913E536
Copy CRC 1913E536
Accurately ripped (confidence 8) [86518718]
Copy OK
Track 16
Filename E:\1111\Bach,W.F.Orchestral_Works-Hartmut_Haenchen(Brilliant)\16 - Suite in G minor ( BWV 1070 ) -5 Capriccio.wav
Peak level 94.6 %
Track quality 100.0 %
Test CRC 1D5699D3
Copy CRC 1D5699D3
Accurately ripped (confidence 6) [AAD02732]
Copy OK
All tracks accurately ripped
No errors occurred
End of status report

Содержание индексной карты (.CUE)

REM GENRE Classical
REM DATE 1993
REM DISCID E50F4B10
REM COMMENT "ExactAudioCopy v0.99pb5"
PERFORMER "Hartmut Haenchen"
TITLE "Bach, Wilhelm Friedemann (1710-1784). Orchestral Works"
FILE "01 - Sinfonia in F major -1 Vivace.wav" WAVE
TRACK 01 AUDIO
TITLE "Sinfonia in F major -1 Vivace"
PERFORMER "Hartmut Haenchen"
INDEX 01 00:00:00
FILE "02 - Sinfonia in F major -2 Andante.wav" WAVE
TRACK 02 AUDIO
TITLE "Sinfonia in F major -2 Andante"
PERFORMER "Hartmut Haenchen"
INDEX 01 00:00:00
FILE "03 - Sinfonia in F major -3 Allegro.wav" WAVE
TRACK 03 AUDIO
TITLE "Sinfonia in F major -3 Allegro"
PERFORMER "Hartmut Haenchen"
INDEX 01 00:00:00
FILE "04 - Sinfonia in F -major -4 Menuetto I & II.wav" WAVE
TRACK 04 AUDIO
TITLE "Sinfonia in F -major -4 Menuetto I & II"
PERFORMER "Hartmut Haenchen"
INDEX 01 00:00:00
INDEX 02 00:49:60
TRACK 05 AUDIO
TITLE "Sinfonia in F major 'Ertonet ihr seligen Volker' - Un poco allegro"
PERFORMER "Hartmut Haenchen"
INDEX 00 02:28:37
FILE "05 - Sinfonia in F major 'Ertonet ihr seligen Volker' - Un poco allegro.wav" WAVE
INDEX 01 00:00:00
TRACK 06 AUDIO
TITLE "Sinfonia in D minor - Adagio-Allegro e forte"
PERFORMER "Hartmut Haenchen"
INDEX 00 07:33:05
FILE "06 - Sinfonia in D minor - Adagio-Allegro e forte.wav" WAVE
INDEX 01 00:00:00
INDEX 02 04:13:63
TRACK 07 AUDIO
TITLE "Sinfonia in D major 'Dies ist der Tag' -1 Allegro e maestoso"
PERFORMER "Hartmut Haenchen"
INDEX 00 09:20:10
FILE "07 - Sinfonia in D major 'Dies ist der Tag' -1 Allegro e maestoso.wav" WAVE
INDEX 01 00:00:00
FILE "08 - Sinfonia in D major 'Dies ist der Tag' -2 Andante.wav" WAVE
TRACK 08 AUDIO
TITLE "Sinfonia in D major 'Dies ist der Tag' -2 Andante"
PERFORMER "Hartmut Haenchen"
INDEX 01 00:00:00
FILE "09 - Sinfonia in D major 'Dies ist der Tag' -3 Vivace.wav" WAVE
TRACK 09 AUDIO
TITLE "Sinfonia in D major 'Dies ist der Tag' -3 Vivace"
PERFORMER "Hartmut Haenchen"
INDEX 01 00:00:00
TRACK 10 AUDIO
TITLE "Sinfonia in D major 'Wo geht die Lebensreise hin'"
PERFORMER "Hartmut Haenchen"
INDEX 00 03:02:15
FILE "10 - Sinfonia in D major 'Wo geht die Lebensreise hin'.wav" WAVE
INDEX 01 00:00:00
TRACK 11 AUDIO
TITLE "Sinfonia in G major 'O Wunder'"
PERFORMER "Hartmut Haenchen"
INDEX 00 03:17:25
FILE "11 - Sinfonia in G major 'O Wunder'.wav" WAVE
INDEX 01 00:00:00
TRACK 12 AUDIO
TITLE "Suite in G minor ( BWV 1070 ) -1 Larghetto-un poco Allegro"
PERFORMER "Hartmut Haenchen"
INDEX 00 03:08:43
FILE "12 - Suite in G minor ( BWV 1070 ) -1 Larghetto-un poco Allegro.wav" WAVE
INDEX 01 00:00:00
INDEX 02 02:26:70
FILE "13 - Suite in G minor ( BWV 1070 ) -2 Torneo.wav" WAVE
TRACK 13 AUDIO
TITLE "Suite in G minor ( BWV 1070 ) -2 Torneo"
PERFORMER "Hartmut Haenchen"
INDEX 01 00:00:00
FILE "14 - Suite in G minor ( BWV 1070 ) -3 Aria, adagio.wav" WAVE
TRACK 14 AUDIO
TITLE "Suite in G minor ( BWV 1070 ) -3 Aria, adagio"
PERFORMER "Hartmut Haenchen"
INDEX 01 00:00:00
FILE "15 - Suite in G minor ( BWV 1070 ) -4 Menuetto alternativo-trio.wav" WAVE
TRACK 15 AUDIO
TITLE "Suite in G minor ( BWV 1070 ) -4 Menuetto alternativo-trio"
PERFORMER "Hartmut Haenchen"
INDEX 01 00:00:00
FILE "16 - Suite in G minor ( BWV 1070 ) -5 Capriccio.wav" WAVE
TRACK 16 AUDIO
TITLE "Suite in G minor ( BWV 1070 ) -5 Capriccio"
PERFORMER "Hartmut Haenchen"
INDEX 01 00:00:00
Доп. информация: Recording: 1993, Christuskirche Berlin
mp3 - https://78.24.219.58:1500/viewtopic.php?t=4599568



Показать сообщения:    

Текущее время: 07-Дек 13:39

Часовой пояс: UTC + 3


Вы не можете начинать темы
Вы не можете отвечать на сообщения
Вы не можете редактировать свои сообщения
Вы не можете удалять свои сообщения
Вы не можете голосовать в опросах
Вы не можете прикреплять файлы к сообщениям
Вы не можете скачивать файлы