(Classical) Beethoven - Septet, Op.20; Quintet, Op.16 (Dennis Russel Davies, Stuttgart Philharmonic Septet, Stuttgart Windquartet) - 1998, FLAC (tracks+.cue) lossless


 

[Цитировать]

Beethoven - Septet, Op.20; Quintet, Op.16 (Dennis Russel Davies, Stuttgart Philharmonic Septet, Stuttgart Windquartet)
Жанр: Classical
Страна-производитель диска: Holland
Год издания диска: 1998
Издатель (лейбл): Weton-Wesgram B.V.
Номер по каталогу: PAL 509E
Дата записи: 1998
Аудиокодек: FLAC
Тип рипа: tracks+.cue
Битрейт аудио: lossless
Продолжительность: 60:00
Источник: собственный рип
сайт-источник/ник/другое: Из личной коллекции
Наличие сканов в содержимом раздачи: да
Треклист:
Beethoven
1-6. Septett op. 20 fur Klarinette, Horn, Fagott und Streicher Es-Dur
7-9. Blaserquintett op. 16 fьr Oboe, Klarinette, Horn, Fagott und Klavier Es-Dur
Исполнители:
Stuttgart Philharmonic Septet (1-6), Stuttgart Windquartet (7-9)
Dennis Russel Davies - piano

Лог создания рипа

Exact Audio Copy V0.99 prebeta 5 from 4. May 2009
EAC extraction logfile from 24. November 2009, 14:29
Stuttgart Philharmonic Septet, Stuttgart Windquartet / Folge 04 _ Ludwig van Beethoven
Used drive : PLEXTOR DVDR PX-800A Adapter: 1 ID: 0
Read mode : Secure
Utilize accurate stream : Yes
Defeat audio cache : Yes
Make use of C2 pointers : No
Read offset correction : 48
Overread into Lead-In and Lead-Out : No
Fill up missing offset samples with silence : Yes
Delete leading and trailing silent blocks : No
Null samples used in CRC calculations : No
Used interface : Native Win32 interface for Win NT & 2000
Gap handling : Appended to previous track
Used output format : User Defined Encoder
Selected bitrate : 1024 kBit/s
Quality : High
Add ID3 tag : No
Command line compressor : C:\Program Files\Exact Audio Copy\FLAC\FLAC.EXE
Additional command line options : -6 -V -T "ARTIST=%a" -T "TITLE=%t" -T "ALBUM=%g" -T "DATE=%y" -T "TRACKNUMBER=%n" -T "GENRE=%m" -T "COMMENT=%e" %s -o %d
TOC of the extracted CD
Track | Start | Length | Start sector | End sector
---------------------------------------------------------
1 | 0:00.00 | 8:13.69 | 0 | 37043
2 | 8:13.69 | 9:44.05 | 37044 | 80848
3 | 17:57.74 | 3:31.02 | 80849 | 96675
4 | 21:29.01 | 7:33.29 | 96676 | 130679
5 | 29:02.30 | 3:46.25 | 130680 | 147654
6 | 32:48.55 | 8:01.66 | 147655 | 183795
7 | 40:50.46 | 14:57.11 | 183796 | 251081
8 | 55:47.57 | 9:15.69 | 251082 | 292775
9 | 65:03.51 | 5:53.15 | 292776 | 319265
Track 1
Filename E:\1111\Beethoven.Septet,Op.20;Quintet,Op.16-Stuttgart_Philharmonic_Septet,Stuttgart_Windquartet\01 - Septett op. 20 fьr Klarinette, Horn, Fagott und Streicher Es-Dur _ Adagio - Allegro con brio.wav
Pre-gap length 0:00:02.00
Peak level 100.0 %
Track quality 99.7 %
Test CRC 4E631CA8
Copy CRC 4E631CA8
Track not present in AccurateRip database
Copy OK
Track 2
Filename E:\1111\Beethoven.Septet,Op.20;Quintet,Op.16-Stuttgart_Philharmonic_Septet,Stuttgart_Windquartet\02 - Septett op. 20 fьr Klarinette, Horn, Fagott und Streicher Es-Dur _ Adagio - Adagio cantabile.wav
Pre-gap length 0:00:01.45
Peak level 96.5 %
Track quality 100.0 %
Test CRC 81158999
Copy CRC 81158999
Track not present in AccurateRip database
Copy OK
Track 3
Filename E:\1111\Beethoven.Septet,Op.20;Quintet,Op.16-Stuttgart_Philharmonic_Septet,Stuttgart_Windquartet\03 - Septett op. 20 fьr Klarinette, Horn, Fagott und Streicher Es-Dur _ Adagio - Tempo di Minuetto.wav
Pre-gap length 0:00:01.45
Peak level 69.0 %
Track quality 100.0 %
Test CRC 78433D04
Copy CRC 78433D04
Track not present in AccurateRip database
Copy OK
Track 4
Filename E:\1111\Beethoven.Septet,Op.20;Quintet,Op.16-Stuttgart_Philharmonic_Septet,Stuttgart_Windquartet\04 - Septett op. 20 fьr Klarinette, Horn, Fagott und Streicher Es-Dur _ Adagio - Thema con Variazioni.wav
Pre-gap length 0:00:01.45
Peak level 100.0 %
Track quality 100.0 %
Test CRC 9E1B3672
Copy CRC 9E1B3672
Track not present in AccurateRip database
Copy OK
Track 5
Filename E:\1111\Beethoven.Septet,Op.20;Quintet,Op.16-Stuttgart_Philharmonic_Septet,Stuttgart_Windquartet\05 - Septett op. 20 fьr Klarinette, Horn, Fagott und Streicher Es-Dur _ Adagio - Scherzo- Allegro molto e vivace.wav
Pre-gap length 0:00:01.45
Peak level 90.0 %
Track quality 100.0 %
Test CRC 43D4B92A
Copy CRC 43D4B92A
Track not present in AccurateRip database
Copy OK
Track 6
Filename E:\1111\Beethoven.Septet,Op.20;Quintet,Op.16-Stuttgart_Philharmonic_Septet,Stuttgart_Windquartet\06 - Septett op. 20 fьr Klarinette, Horn, Fagott und Streicher Es-Dur _ Adagio - Andante con moto alla Marcia - Presto.wav
Pre-gap length 0:00:01.45
Peak level 91.7 %
Track quality 100.0 %
Test CRC F5E15D31
Copy CRC F5E15D31
Track not present in AccurateRip database
Copy OK
Track 7
Filename E:\1111\Beethoven.Septet,Op.20;Quintet,Op.16-Stuttgart_Philharmonic_Septet,Stuttgart_Windquartet\07 - Blдserquintett op. 16 fьr Oboe, Klarinette, Horn, Fagott und Klavier Es-Dur _ Grave - Allegro ma non troppo.wav
Pre-gap length 0:00:04.45
Peak level 75.1 %
Track quality 100.0 %
Test CRC ACD9DEAA
Copy CRC ACD9DEAA
Track not present in AccurateRip database
Copy OK
Track 8
Filename E:\1111\Beethoven.Septet,Op.20;Quintet,Op.16-Stuttgart_Philharmonic_Septet,Stuttgart_Windquartet\08 - Blдserquintett op. 16 fьr Oboe, Klarinette, Horn, Fagott und Klavier Es-Dur _ Andante cantabile.wav
Peak level 68.1 %
Track quality 100.0 %
Test CRC 3342DF13
Copy CRC 3342DF13
Track not present in AccurateRip database
Copy OK
Track 9
Filename E:\1111\Beethoven.Septet,Op.20;Quintet,Op.16-Stuttgart_Philharmonic_Septet,Stuttgart_Windquartet\09 - Blдserquintett op. 16 fьr Oboe, Klarinette, Horn, Fagott und Klavier Es-Dur _ Rondo- Allegro ma non troppo.wav
Peak level 88.9 %
Track quality 99.9 %
Test CRC B2A3CC56
Copy CRC B2A3CC56
Track not present in AccurateRip database
Copy OK
None of the tracks are present in the AccurateRip database
No errors occurred
End of status report

Содержание индексной карты (.CUE)

REM GENRE Classical
REM DATE 1993
REM DISCID 8410A009
REM COMMENT "ExactAudioCopy v0.99pb5"
PERFORMER "Stuttgart Philharmonic Septet, Stuttgart Windquartet"
TITLE "Folge 04 _ Ludwig van Beethoven"
FILE "01 - Septett op. 20 fьr Klarinette, Horn, Fagott und Streicher Es-Dur _ Adagio - Allegro con brio.wav" WAVE
TRACK 01 AUDIO
TITLE "Septett op. 20 fьr Klarinette, Horn, Fagott und Streicher Es-Dur _ Adagio - A..."
PERFORMER "Stuttgart Philharmonic Septet, Stuttgart Windquartet"
FLAGS DCP
INDEX 01 00:00:00
TRACK 02 AUDIO
TITLE "Septett op. 20 fьr Klarinette, Horn, Fagott und Streicher Es-Dur _ Adagio - A..."
PERFORMER "Stuttgart Philharmonic Septet, Stuttgart Windquartet"
FLAGS DCP
INDEX 00 08:12:24
FILE "02 - Septett op. 20 fьr Klarinette, Horn, Fagott und Streicher Es-Dur _ Adagio - Adagio cantabile.wav" WAVE
INDEX 01 00:00:00
TRACK 03 AUDIO
TITLE "Septett op. 20 fьr Klarinette, Horn, Fagott und Streicher Es-Dur _ Adagio - T..."
PERFORMER "Stuttgart Philharmonic Septet, Stuttgart Windquartet"
FLAGS DCP
INDEX 00 09:42:35
FILE "03 - Septett op. 20 fьr Klarinette, Horn, Fagott und Streicher Es-Dur _ Adagio - Tempo di Minuetto.wav" WAVE
INDEX 01 00:00:00
TRACK 04 AUDIO
TITLE "Septett op. 20 fьr Klarinette, Horn, Fagott und Streicher Es-Dur _ Adagio - T..."
PERFORMER "Stuttgart Philharmonic Septet, Stuttgart Windquartet"
FLAGS DCP
INDEX 00 03:29:32
FILE "04 - Septett op. 20 fьr Klarinette, Horn, Fagott und Streicher Es-Dur _ Adagio - Thema con Variazioni.wav" WAVE
INDEX 01 00:00:00
TRACK 05 AUDIO
TITLE "Septett op. 20 fьr Klarinette, Horn, Fagott und Streicher Es-Dur _ Adagio - S..."
PERFORMER "Stuttgart Philharmonic Septet, Stuttgart Windquartet"
FLAGS DCP
INDEX 00 07:31:59
FILE "05 - Septett op. 20 fьr Klarinette, Horn, Fagott und Streicher Es-Dur _ Adagio - Scherzo- Allegro molto e vivace.wav" WAVE
INDEX 01 00:00:00
TRACK 06 AUDIO
TITLE "Septett op. 20 fьr Klarinette, Horn, Fagott und Streicher Es-Dur _ Adagio - A..."
PERFORMER "Stuttgart Philharmonic Septet, Stuttgart Windquartet"
FLAGS DCP
INDEX 00 03:44:55
FILE "06 - Septett op. 20 fьr Klarinette, Horn, Fagott und Streicher Es-Dur _ Adagio - Andante con moto alla Marcia - Presto.wav" WAVE
INDEX 01 00:00:00
TRACK 07 AUDIO
TITLE "Blдserquintett op. 16 fьr Oboe, Klarinette, Horn, Fagott und Klavier Es-Dur _..."
PERFORMER "Stuttgart Philharmonic Septet, Stuttgart Windquartet"
FLAGS DCP
INDEX 00 07:57:21
FILE "07 - Blдserquintett op. 16 fьr Oboe, Klarinette, Horn, Fagott und Klavier Es-Dur _ Grave - Allegro ma non troppo.wav" WAVE
INDEX 01 00:00:00
FILE "08 - Blдserquintett op. 16 fьr Oboe, Klarinette, Horn, Fagott und Klavier Es-Dur _ Andante cantabile.wav" WAVE
TRACK 08 AUDIO
TITLE "Blдserquintett op. 16 fьr Oboe, Klarinette, Horn, Fagott und Klavier Es-Dur _..."
PERFORMER "Stuttgart Philharmonic Septet, Stuttgart Windquartet"
FLAGS DCP
INDEX 01 00:00:00
FILE "09 - Blдserquintett op. 16 fьr Oboe, Klarinette, Horn, Fagott und Klavier Es-Dur _ Rondo- Allegro ma non troppo.wav" WAVE
TRACK 09 AUDIO
TITLE "Blдserquintett op. 16 fьr Oboe, Klarinette, Horn, Fagott und Klavier Es-Dur _..."
PERFORMER "Stuttgart Philharmonic Septet, Stuttgart Windquartet"
FLAGS DCP
INDEX 01 00:00:00



Показать сообщения:    

Текущее время: 11-Дек 16:51

Часовой пояс: UTC + 3


Вы не можете начинать темы
Вы не можете отвечать на сообщения
Вы не можете редактировать свои сообщения
Вы не можете удалять свои сообщения
Вы не можете голосовать в опросах
Вы не можете прикреплять файлы к сообщениям
Вы не можете скачивать файлы