В поиске Великого Зверя 666: Алистер Кроули / In Search of the Great Beast 666: Aleister Crowley (Роберт Гарофало / Robert Garofalo) [July 28, 2009, биография, DVDRip]


Статистика раздачи [Обновить пиров]
Размер:  1.18 GB   |    Зарегистрирован:  8 месяцев 16 дней   |    Скачан:  1 раз

Полного источника не было: 1 месяц 1 день

 
   
 
 
 

[Цитировать]

В поиске Великого Зверя 666: Алистер Кроули / In Search of the Great Beast 666: Aleister Crowley
Дата/Год выпуска: July 28, 2009
Жанр: биография
Продолжительность: 02:06:22
Перевод: Субтитры
Русские субтитры: есть
Формат субтитров: softsub (SRT)
Оригинальная аудиодорожка: английский
Режиссер: Роберт Гарофало / Robert Garofalo
Описание:Документальный фильм "В поисках великого зверя 666" о жизненном пути Алистера Кроули (1875-1947), одного из самых таинственных и спорных людей двадцатого века, бесславно известного как "самый жестокий человек в мире".
Озвученное легендарным Джоссом Эклэндом, это яркое повествование рассказывает о невероятных и отвратительных фактах, имевших место в жизни великого оккультиста, шпиона, поэта, гедониста, альпиниста. Как он был связан с президентом США Джорджем Бушем, сайентологией, Джеком-Потрошителем, Уинстоном Черчиллем, Гитлером и Яном Флемингом? Как вышло, что этот человек стал вдохновителем для многих поколений музыкальных групп мирового класса?
Под различными обликами и скрытый псевдонимами, Кроули путешествовал по миру в поисках высшего знания и абсолютной власти через Оккультизм. Он упивался тем, что некоторые описывают как акты сексуальной развращённости. Его влияние на современную культуру очевидно, но его репутация остается окутанной завесой позора.
Через драматично восстановленные сцены жизни этот биографический фильм исследует границы дозволенного, назначенные самим "Зверем 666", человеком, который, как не только говорят, вдохновил движение свободной любви, но также и через его литературное творчество был печально известен заменой Десяти Заповедей только одной: "Делай то, чего ты хочешь - таков будет Закон."
качество: DVDRip
формат: AVI
Видео: XVID 640x360 29.97fps 1195Kbps [Video 0]
Аудио: MPEG Audio Layer 3 44100Hz stereo 128Kbps [Audio 1]

MediaInfo

Общее
Полное имя : E:\In Search Of The Great Beast 666\In Search Of The Great Beast 666.avi
Формат : AVI
Формат/Информация : Audio Video Interleave
Размер файла : 1,18 Гбайт
Продолжительность : 2 ч. 6 м.
Общий поток : 1337 Кбит/сек
Видео
Идентификатор : 0
Формат : MPEG-4 Visual
Профиль формата : Simple@L3
Параметр BVOP формата : Нет
Параметр QPel формата : Нет
Параметр GMC формата : Без точки перехода
Параметр матрицы формата : Default (H.263)
Идентификатор кодека : XVID
Идентификатор кодека/Подсказка : XviD
Продолжительность : 2 ч. 6 м.
Битрейт : 1196 Кбит/сек
Ширина : 640 пикселей
Высота : 360 пикселей
Соотношение сторон : 16:9
Частота кадров : 29,970 кадров/сек
Цветовое пространство : YUV
Субдискретизация насыщенности : 4:2:0
Битовая глубина : 8 бит
Тип развёртки : Прогрессивная
Метод сжатия : С потерями
Бит/(Пиксели*Кадры) : 0.173
Размер потока : 1,06 Гбайт (89%)
Библиотека кодирования : Magic0432
Аудио
Идентификатор : 1
Формат : MPEG Audio
Версия формата : Version 1
Профиль формата : Layer 3
Режим : Joint stereo
Расширение режима : MS Stereo
Идентификатор кодека : 55
Идентификатор кодека/Подсказка : MP3
Продолжительность : 2 ч. 6 м.
Вид битрейта : Постоянный
Битрейт : 128 Кбит/сек
Каналы : 2 канала
Частота : 44,1 КГц
Метод сжатия : С потерями
Размер потока : 116 Мбайт (10%)
Выравнивание : Соединение по промежуткам
Продолжительность промежутка : 26 мс. (0,78 видеокадр)

Скриншоты



[teatrix.ru].t20368.torrent 
Торрент: Зарегистрирован [ 2016-03-19 20:38 ] · 7107CB87C5BA20E3A4A277C8C2D36F6CCE74EBA7

Скачать .torrent

Скачать

12 KB

Статус: проверено
Скачан: 1 раз
Размер: 1.18 GB
terms.php



Быстрый ответ

Имя:

      
Для отправки сообщений необходимо включить JavaScript
Показать сообщения:    

Текущее время: 05-Дек 05:29

Часовой пояс: UTC + 3


Вы можете начинать темы
Вы можете отвечать на сообщения
Вы не можете редактировать свои сообщения
Вы не можете удалять свои сообщения
Вы не можете голосовать в опросах
Вы не можете прикреплять файлы к сообщениям
Вы можете скачивать файлы