Мохаммед и Ларри / Muhammad and Larry (Брэдли Каплан, Альберт Мэйселс / Bradley Kaplan, Albert Maysles) [2009, Документальный, биография, спорт, драма, IPTVRip]


Статистика раздачи [Обновить пиров]
Размер:  801 MB   |    Зарегистрирован:  8 месяцев 17 дней   |    Скачан:  0 раз

Полного источника не было: Никогда

 
   
 
 
 

[Цитировать]

Мохаммед и Ларри / Muhammad and Larry
Дата/Год выпуска: 2009
Страна: США, Maysles Films See more
Жанр: Документальный, биография, спорт, драма
Продолжительность: 00:53:08
Перевод: Профессиональный (дублированный)
Русские субтитры: нет
Оригинальная аудиодорожка: нет
Режиссер: Брэдли Каплан, Альберт Мэйселс / Bradley Kaplan, Albert Maysles
Телеканал: Viasat History
Описание: В октябре 1980 года Мохаммед Али готовился к беспрецедентному поединку за титул четырехкратного чемпиона в тяжелом весе со своим другом и бывшим спарринг-партнером Ларри Холмсом. Великий Али, мягко говоря, переживал закат своей карьеры. Поклонники, друзья и спортивные комментаторы были уверены, что он переоценивал свои силы. Как он мог убедить их в обратном? Авторы этого фильма, документалисты Альберт и Дэвид Мэйселс подробно рассказывают о том, как Али готовится к поединку, пытаясь доказать всему миру, а возможно, и себе самому, что он по-прежнему заслуживает титула "Великий".
Сэмпл: http://multi-up.com/1032976
качество: IPTVRip
формат: AVI
Видео: 720x416 (1.73:1), 25 fps, XviD MPEG-4 ~1905 kbps avg, 0.25 bit/pixel
Аудио: 48 kHz, AC3 Dolby Digital, 2/0 (L,R) ch, ~192 kbps

MediaInfo

General
Complete name : E:\Pshichko66\Na zapis'\Документальные фильмы\Mohammed i Larri.avi
Format : AVI
Format/Info : Audio Video Interleave
File size : 801 MiB
Duration : 53mn 8s
Overall bit rate : 2 108 Kbps
Writing application : VirtualDubMod 1.5.10.2 (build 2540/release)
Writing library : VirtualDubMod build 2540/release
Video
ID : 0
Format : MPEG-4 Visual
Format profile : Advanced Simple@L5
Format settings, BVOP : 2
Format settings, QPel : No
Format settings, GMC : No warppoints
Format settings, Matrix : Custom
Codec ID : XVID
Codec ID/Hint : XviD
Duration : 53mn 8s
Bit rate : 1 906 Kbps
Width : 720 pixels
Height : 416 pixels
Display aspect ratio : 1.731
Frame rate : 25.000 fps
Color space : YUV
Chroma subsampling : 4:2:0
Bit depth : 8 bits
Scan type : Progressive
Compression mode : Lossy
Bits/(Pixel*Frame) : 0.255
Stream size : 725 MiB (90%)
Writing library : XviD 73
Audio
ID : 1
Format : AC-3
Format/Info : Audio Coding 3
Mode extension : CM (complete main)
Format settings, Endianness : Big
Codec ID : 2000
Duration : 53mn 8s
Bit rate mode : Constant
Bit rate : 192 Kbps
Channel(s) : 2 channels
Channel positions : Front: L R
Sampling rate : 48.0 KHz
Bit depth : 16 bits
Compression mode : Lossy
Stream size : 73.0 MiB (9%)
Alignment : Split accross interleaves
Interleave, duration : 40 ms (1.00 video frame)
Interleave, preload duratio : 500 ms

Скриншоты

[teatrix.ru].t20370.torrent 
Торрент: Зарегистрирован [ 2016-03-19 20:38 ] · 1D9DA450065D87D52864CD24C7DA8143ABAC2026

Скачать .torrent

Скачать

16 KB

Статус: проверено
Скачан: 0 раз
Размер: 801 MB
terms.php



Быстрый ответ

Имя:

      
Для отправки сообщений необходимо включить JavaScript
Показать сообщения:    

Текущее время: 06-Дек 19:00

Часовой пояс: UTC + 3


Вы можете начинать темы
Вы можете отвечать на сообщения
Вы не можете редактировать свои сообщения
Вы не можете удалять свои сообщения
Вы не можете голосовать в опросах
Вы не можете прикреплять файлы к сообщениям
Вы можете скачивать файлы