(Classical, Vocal) Mahler & Wagner - Ruckert-Lieder, Wesendonck-Lieder & Prelude et Mort d'Isolde (Fecility Lott, Quatuor Schumann) - 2007, FLAC (image+.cue), lossless


 

[Цитировать]

Mahler & Wagner - Lieder - Fecility Lott
Жанр: Classical, Vocal
Страна-производитель диска: France
Год издания диска: 2007
Издатель (лейбл): Æon
Номер по каталогу: AECD 0858
Дата записи: 09-12.06.2007
Аудиокодек: FLAC
Тип рипа: image+.cue
Битрейт аудио: lossless
Продолжительность: 53.23
Источник: собственный рип
Наличие сканов в содержимом раздачи: да
Исполнители: Fecility Lott, Quatuor Schumann

Треклист:

Gustav Mahler - Rückert-Lieder:
01. Liebst du um Schönheit
02. Um Mitternacht
03. Ich atmet einen linden Duft
04. Blicke mir in die Lieder
05. Ich bin der Welt abhanden gekommen
Richard Wagner - Wesendonck-Lieder:
06. Der Engel
07. Stehe still
08. Im Treibhaus
09. Schmerzen
10. Traüme
Prelude et Mort d'Isolde
11. Prelude de Tristan & Isolde
12. Mort d'Isolde
Total 53.23

Лог создания рипа:

Exact Audio Copy V1.0 beta 3 from 29. August 2011
Отчёт EAC об извлечении, выполненном 14. февраля 2015, 23:17
Gustav Malher, Richard Wagner / Ruckert-Lieder, Wesendonck-Lieder, Prelude & Mort d'Isolde
Дисковод: Optiarc DVD RW AD-7260S Adapter: 0 ID: 1
Режим чтения : Достоверность
Использование точного потока : Да
Отключение кэша аудио : Да
Использование указателей C2 : Нет
Коррекция смещения при чтении : 48
Способность читать области Lead-in и Lead-out : Нет
Заполнение пропущенных сэмплов тишиной : Да
Удаление блоков с тишиной в начале и конце : Нет
При вычислениях CRC использовались нулевые сэмплы : Да
Интерфейс : Встроенный Win32-интерфейс для Win NT/2000
Выходной формат : Пользовательский кодировщик
Выбранный битрейт : 896 kBit/s
Качество : Высокий
Добавление ID3-тега : Нет
Утилита сжатия : C:\Program Files\FLAC Frontend\tools\flac.exe
Дополнительные параметры : -V -8 -T "Date=%year%" -T "Genre=%genre%" %source%
TOC извлечённого CD
Трек | Старт | Длительность | Начальный сектор | Конечный сектор
---------------------------------------------------------------------
1 | 0:00.00 | 2:17.60 | 0 | 10334
2 | 2:17.60 | 5:58.12 | 10335 | 37196
3 | 8:15.72 | 2:19.13 | 37197 | 47634
4 | 10:35.10 | 1:29.69 | 47635 | 54378
5 | 12:05.04 | 6:27.56 | 54379 | 83459
6 | 18:32.60 | 2:57.18 | 83460 | 96752
7 | 21:30.03 | 3:29.08 | 96753 | 112435
8 | 24:59.11 | 5:19.70 | 112436 | 136430
9 | 30:19.06 | 2:04.42 | 136431 | 145772
10 | 32:23.48 | 4:15.52 | 145773 | 164949
11 | 36:39.25 | 9:35.58 | 164950 | 208132
12 | 46:15.08 | 7:07.68 | 208133 | 240225
Характеристики диапазона извлечения и сообщения об ошибках
Выбранный диапазон
Имя файла N:\Mahler, Wagner - Lieder - Fecility Lott\Gustav Malher, Richard Wagner - Ruckert-Lieder, Wesendonck-Lieder, Prelude & Mort d'Isolde.wav
Пиковый уровень 99.9 %
Скорость извлечения 3.9 X
Качество диапазона 100.0 %
CRC теста FC09404A
CRC копии FC09404A
Копирование... OK
Ошибок не произошло
AccurateRip: сводка
Трек 1 : извлечено точно (доверие 2) [9D7A76F4] (AR v2)
Трек 2 : извлечено точно (доверие 2) [7F756E20] (AR v2)
Трек 3 : извлечено точно (доверие 2) [F6D62C7D] (AR v2)
Трек 4 : извлечено точно (доверие 2) [2B8DDEFE] (AR v2)
Трек 5 : извлечено точно (доверие 2) [184DA589] (AR v2)
Трек 6 : извлечено точно (доверие 2) [A07C620D] (AR v2)
Трек 7 : извлечено точно (доверие 2) [256293A7] (AR v2)
Трек 8 : извлечено точно (доверие 2) [3F7F14F6] (AR v2)
Трек 9 : извлечено точно (доверие 2) [D99965B2] (AR v2)
Трек 10 : извлечено точно (доверие 2) [11D9E797] (AR v2)
Трек 11 : извлечено точно (доверие 2) [724EC224] (AR v2)
Трек 12 : извлечено точно (доверие 2) [27B7B567] (AR v2)
Все треки извлечены точно
Конец отчёта
==== Контрольная сумма отчёта B34DE71A76ED8616D6AFF2EEA6068A0367BFB3B8BE4F4759EDCB6C2AB4B41080 ====



Показать сообщения:    

Текущее время: 09-Дек 16:36

Часовой пояс: UTC + 3


Вы не можете начинать темы
Вы не можете отвечать на сообщения
Вы не можете редактировать свои сообщения
Вы не можете удалять свои сообщения
Вы не можете голосовать в опросах
Вы не можете прикреплять файлы к сообщениям
Вы не можете скачивать файлы