(Classical, Choral) Wagner - Kantaten & Ouverturen (Friederike Wagner, sopran, Chor and Orchester der Bamberger Symphoniker, Karl Anton Rickenbacher) - 1994, FLAC (image+.cue), lossless


Статистика раздачи [Обновить пиров]
Размер:  269 MB   |    Зарегистрирован:  8 месяцев 21 день   |    Скачан:  0 раз

Полного источника не было: Никогда

 
   
 
 
 

[Цитировать]

Wagner - Kantaten & Ouvertüren - Rickenbacher
Жанр: Classical, Choral
Страна-производитель диска: Austria
Год издания диска: 1994
Издатель (лейбл): Orfeo Int. Music GmbH
Номер по каталогу: C 312 941 A
Дата записи: 05-11.1993
Аудиокодек: FLAC
Тип рипа: image+.cue
Битрейт аудио: lossless
Продолжительность: 61.41
Источник: собственный рип
Наличие сканов в содержимом раздачи: да
Исполнители:
Friederike Wagner, sopran
Chor and Orchester der Bamberger Symphoniker
Karl Anton Rickenbacher

Треклист:

Beim Antritt des neuen Jahres 1835, WWV 36
01. Ouvertüre
02. Sostenuto
03. Allegretto
04. Moderato assai
05. Allegro assai
06. Volks-Hymne Nicolay, WWV 44
07. Eine Faust-Ouvertüre, WWV 59
08. Descendons gaiement la courtille, WWV 65
09. Der Tag erscheint, WWV 68B
10. An Webers Grabe, WWV 72
11. Rienzi - Ouvertüre
Total 61.41

Лог создания рипа:

Exact Audio Copy V1.0 beta 3 from 29. August 2011
Отчёт EAC об извлечении, выполненном 15. февраля 2015, 3:08
Richard Wagner / Kantaten & Ouverturen
Дисковод: Optiarc DVD RW AD-7260S Adapter: 0 ID: 1
Режим чтения : Достоверность
Использование точного потока : Да
Отключение кэша аудио : Да
Использование указателей C2 : Нет
Коррекция смещения при чтении : 48
Способность читать области Lead-in и Lead-out : Нет
Заполнение пропущенных сэмплов тишиной : Да
Удаление блоков с тишиной в начале и конце : Нет
При вычислениях CRC использовались нулевые сэмплы : Да
Интерфейс : Встроенный Win32-интерфейс для Win NT/2000
Выходной формат : Пользовательский кодировщик
Выбранный битрейт : 896 kBit/s
Качество : Высокий
Добавление ID3-тега : Нет
Утилита сжатия : C:\Program Files\FLAC Frontend\tools\flac.exe
Дополнительные параметры : -V -8 -T "Date=%year%" -T "Genre=%genre%" %source%
TOC извлечённого CD
Трек | Старт | Длительность | Начальный сектор | Конечный сектор
---------------------------------------------------------------------
1 | 0:00.32 | 8:24.00 | 32 | 37831
2 | 8:24.32 | 1:49.68 | 37832 | 46074
3 | 10:14.25 | 2:22.42 | 46075 | 56766
4 | 12:36.67 | 0:53.05 | 56767 | 60746
5 | 13:29.72 | 3:22.58 | 60747 | 75954
6 | 16:52.55 | 5:14.00 | 75955 | 99504
7 | 22:06.55 | 12:12.00 | 99505 | 154404
8 | 34:18.55 | 4:33.70 | 154405 | 174949
9 | 38:52.50 | 6:12.05 | 174950 | 202854
10 | 45:04.55 | 5:14.00 | 202855 | 226404
11 | 50:18.55 | 11:22.37 | 226405 | 277591
Характеристики диапазона извлечения и сообщения об ошибках
Выбранный диапазон
Имя файла N:\Wagner - Kantaten & Ouverturen - Rickenbacher\Richard Wagner - Kantaten & Ouverturen.wav
Пиковый уровень 100.0 %
Скорость извлечения 4.0 X
Качество диапазона 100.0 %
CRC теста 1E843027
CRC копии 1E843027
Копирование... OK
Ошибок не произошло
AccurateRip: сводка
Трек 1 точность не определена (достоверность 3) [9EE4EE63], AccurateRip вернул [42FC023F] (AR v2)
Трек 2 точность не определена (достоверность 3) [DE527A9A], AccurateRip вернул [BA7833B1] (AR v2)
Трек 3 точность не определена (достоверность 3) [3B042DFC], AccurateRip вернул [F74E99D5] (AR v2)
Трек 4 точность не определена (достоверность 3) [D7D7A9C8], AccurateRip вернул [675DB6DE] (AR v2)
Трек 5 точность не определена (достоверность 3) [0EBED366], AccurateRip вернул [B0F13BAD] (AR v2)
Трек 6 точность не определена (достоверность 3) [87E9F793], AccurateRip вернул [37EFAD6F] (AR v2)
Трек 7 точность не определена (достоверность 3) [F174344B], AccurateRip вернул [8C97D2F3] (AR v2)
Трек 8 точность не определена (достоверность 3) [81978193], AccurateRip вернул [2DA9D241] (AR v2)
Трек 9 точность не определена (достоверность 3) [45258C53], AccurateRip вернул [69C2A9D2] (AR v2)
Трек 10 точность не определена (достоверность 3) [90CF2CCC], AccurateRip вернул [E1928DC6] (AR v2)
Трек 11 точность не определена (достоверность 3) [DD387BD1], AccurateRip вернул [31388BFE] (AR v2)
Ни один трек не прошёл проверки на точность
В вашей базе может быть иной вариант штамповки диска
Конец отчёта
==== Контрольная сумма отчёта 3746F496E1F6FBC03E933D6D49B907E487DCED11BEC4AD125373B3EE243DA80B ====
[teatrix.ru].t20372.torrent 
Торрент: Зарегистрирован [ 2016-03-19 20:38 ] · 11E5448B27DE47E3E2C612A31CCD1F9D8212D41C

Скачать .torrent

Скачать

12 KB

Статус: проверено
Скачан: 0 раз
Размер: 269 MB
terms.php



Быстрый ответ

Имя:

      
Для отправки сообщений необходимо включить JavaScript
Показать сообщения:    

Текущее время: 10-Дек 04:07

Часовой пояс: UTC + 3


Вы можете начинать темы
Вы можете отвечать на сообщения
Вы не можете редактировать свои сообщения
Вы не можете удалять свои сообщения
Вы не можете голосовать в опросах
Вы не можете прикреплять файлы к сообщениям
Вы можете скачивать файлы