(Classical) Peter Cornelius - The Three Kings and other choral music - Polyphony, Stephen Layton - 2000, FLAC (image+.cue) lossless


Статистика раздачи [Обновить пиров]
Размер:  245 MB   |    Зарегистрирован:  8 месяцев 19 дней   |    Скачан:  0 раз

Полного источника не было: Никогда

 
   
 
 
 

[Цитировать]

Peter Cornelius - The Three Kings and other choral music - Polyphony, Stephen Layton
Жанр: Classical
Страна-производитель диска: UK
Год издания диска: 2000
Издатель (лейбл): Hyperion
Номер по каталогу: CDA67206
Дата записи: 2000
Аудиокодек: FLAC
Тип рипа: image+.cue
Битрейт аудио: lossless
Продолжительность: 72:26
Источник: собственный рип
Наличие сканов в содержимом раздачи: да
Треклист:
Peter Cornelius (1824-1874)
[1] Requiem
[2] Die Vätergruft, Op.19
[3]-[5] Drei Chorgesänge, Op.11
[6] Die Könige, Op.8 No.3
[7] Liebe: Ein Zyklus von 3 Chorliedern, Op.18
[10] Der alte Soldat, Op.12 No.1
[11]-[13] Drei Psalmlieder, Op.13
[14] So weich und warm
[15]-[19] Trauerchöre, Op.9
[20] Trost in Tränen, Op.14
Исполнители:
Polyphony
Stephen Layton
conductor

Лог создания рипа

Exact Audio Copy V1.0 beta 3 from 29. August 2011
EAC extraction logfile from 7. February 2015, 19:05
Polyphony, Stephen Layton / Cornelius - The Three Kings and other choral music
Used drive : HL-DT-STDVDRAM GU70N Adapter: 0 ID: 0
Read mode : Secure
Utilize accurate stream : Yes
Defeat audio cache : Yes
Make use of C2 pointers : No
Read offset correction : 48
Overread into Lead-In and Lead-Out : No
Fill up missing offset samples with silence : Yes
Delete leading and trailing silent blocks : No
Null samples used in CRC calculations : Yes
Used interface : Native Win32 interface for Win NT & 2000
Used output format : User Defined Encoder
Selected bitrate : 128 kBit/s
Quality : High
Add ID3 tag : No
Command line compressor : C:\Program Files (x86)\Exact Audio Copy\Flac\flac.exe
Additional command line options : -V -8 -T "Date=%year%" -T "Genre=%genre%" %source%
TOC of the extracted CD
Track | Start | Length | Start sector | End sector
---------------------------------------------------------
1 | 0:00.00 | 8:07.70 | 0 | 36594
2 | 8:07.70 | 3:11.67 | 36595 | 50986
3 | 11:19.62 | 5:27.36 | 50987 | 75547
4 | 16:47.23 | 2:32.57 | 75548 | 87004
5 | 19:20.05 | 2:10.27 | 87005 | 96781
6 | 21:30.32 | 2:57.66 | 96782 | 110122
7 | 24:28.23 | 4:37.12 | 110123 | 130909
8 | 29:05.35 | 3:18.33 | 130910 | 145792
9 | 32:23.68 | 4:41.72 | 145793 | 166939
10 | 37:05.65 | 3:44.03 | 166940 | 183742
11 | 40:49.68 | 2:57.69 | 183743 | 197086
12 | 43:47.62 | 2:17.15 | 197087 | 207376
13 | 46:05.02 | 1:33.48 | 207377 | 214399
14 | 47:38.50 | 2:54.27 | 214400 | 227476
15 | 50:33.02 | 4:47.36 | 227477 | 249037
16 | 55:20.38 | 2:48.53 | 249038 | 261690
17 | 58:09.16 | 3:15.04 | 261691 | 276319
18 | 61:24.20 | 1:50.21 | 276320 | 284590
19 | 63:14.41 | 3:57.39 | 284591 | 302404
20 | 67:12.05 | 4:12.21 | 302405 | 321325
Range status and errors
Selected range
Filename C:\temp\CDA67206 - Cornelius - The Three Kings and other choral music\Cornelius - The Three Kings and other choral music.wav
Peak level 82.7 %
Extraction speed 2.2 X
Range quality 100.0 %
Test CRC 424EC0CD
Copy CRC 424EC0CD
Copy OK
No errors occurred
AccurateRip summary
Track 1 accurately ripped (confidence 3) [A141125F] (AR v2)
Track 2 accurately ripped (confidence 3) [452CF603] (AR v2)
Track 3 accurately ripped (confidence 3) [E87670F1] (AR v2)
Track 4 accurately ripped (confidence 3) [3103CBDD] (AR v2)
Track 5 accurately ripped (confidence 3) [3114A782] (AR v2)
Track 6 accurately ripped (confidence 3) [B2E36451] (AR v2)
Track 7 accurately ripped (confidence 3) [27EDE7B1] (AR v2)
Track 8 accurately ripped (confidence 3) [EF26EE1E] (AR v2)
Track 9 accurately ripped (confidence 3) [BF0B6C6C] (AR v2)
Track 10 accurately ripped (confidence 3) [23F58A34] (AR v2)
Track 11 accurately ripped (confidence 3) [758C6BA9] (AR v2)
Track 12 accurately ripped (confidence 3) [C4606F73] (AR v2)
Track 13 accurately ripped (confidence 3) [6337C7C0] (AR v2)
Track 14 accurately ripped (confidence 3) [53DD304A] (AR v2)
Track 15 accurately ripped (confidence 3) [13DF1459] (AR v2)
Track 16 accurately ripped (confidence 3) [73BECF4B] (AR v2)
Track 17 accurately ripped (confidence 3) [315F25AE] (AR v2)
Track 18 accurately ripped (confidence 3) [1A846F59] (AR v2)
Track 19 accurately ripped (confidence 3) [67FF4F57] (AR v2)
Track 20 accurately ripped (confidence 3) [E1B1E2D6] (AR v2)
All tracks accurately ripped
End of status report
==== Log checksum 6AC87654172C40B33129C004B476E1EB1A30C977AFF32395FE071313FE2EC53A ====
[teatrix.ru].t20373.torrent 
Торрент: Зарегистрирован [ 2016-03-19 20:38 ] · 850800D5037F57B898F5872DC33B1ADC20C00F30

Скачать .torrent

Скачать

40 KB

Статус: проверено
Скачан: 0 раз
Размер: 245 MB
terms.php



Быстрый ответ

Имя:

      
Для отправки сообщений необходимо включить JavaScript
Показать сообщения:    

Текущее время: 08-Дек 01:20

Часовой пояс: UTC + 3


Вы можете начинать темы
Вы можете отвечать на сообщения
Вы не можете редактировать свои сообщения
Вы не можете удалять свои сообщения
Вы не можете голосовать в опросах
Вы не можете прикреплять файлы к сообщениям
Вы можете скачивать файлы