(Vocal) Mahler - Lieder: Early recordings 1915 - 1949 (Grete Stuckgold • Emmi Leisner • Heinrich Schlusnus • Heinrich Rehkemper • Sarah Jane Charles-Cahier • Charles Kullman • Karin Branzell • Eugenia Zareska) - 2003, FLAC (image+.cue) lossless


 

[Цитировать]

gustav mahler - lieder
early recordings 1915 - 1949
--- Жанр: Vocal
Страна-производитель диска: England
Год издания диска: 2003
Издатель (лейбл): Symposium
Дата записи: 1915-1949
Аудиокодек: FLAC
Тип рипа: image+.cue
Битрейт аудио: lossless
Продолжительность: 78'41''
Источник: собственный рип
Наличие сканов в содержимом раздачи: да
Треклист:
[01] Lieder und Gesänge aus der Jugendzeit: VII. Ich ging mit Lust
[02] Des Knaben Wunderchorn: IV. Wer hat dies Liedlein erdacht
Grete Stückgold with Unknown Orchestra 1921, Berlin
[03] Symphony No.2: IV. Urlicht
Emmi Leisner with Kapelle des Staats-Oper Berlin - Oscar Fried 1924
[04] Kindertotenlieder: I. Nun will die Sonn' so hell aufgeh'n
[05] II. Nun seh' ich wohl
[06] III. Wenn dein Mutterlein
[07] IV. Oft denk' ich, sie sind nur ausgegangen
[08] V. In diesem Wetter
Heinrich Rehkemper with Kapelle des Staats-Oper Berlin - Jascha Horenstein 1928
[09] Symphony No.2: IV. Urlicht
[10] Lieder nach Rückert: IV. Ich bin der Welt abhanden gekommen
Sarah Jane Charles-Cahier with Mitglieder des Orchesters der Staatsoper Berlin - Selmar Meyrowitz 1915
[11] Des Knaben Wunderhorn: VII. Rheinlegendchen
[12] XII. Der Tambourg' sell
Heinrich Schlusnus with Orchester der Staats-Oper Berlin - Hermann Weigert 1931
[13] Lieder nach Rückert: I. Ich atmet' einen Lindenduft
Charles Kullman with Orchester - Sir Malcolm Sargent 20.06.1938, London
[14] Des Knaben Wunderchorn: V. Das irdische Leben
Karin Branzell with piano 1949?
[15] Lieder eines fahrender Gesellen: I. Wenn mein Schatz hochzeit macht
[16] II. Ging heut' Morgen über's Feld
[17] III. Ich hab' ein glühend' Messer
[18] IV. Die zwei blauen Augen
Eugenia Zareska with London Philharmonic Orchestra - Eduard van Beinum 1946
Исполнители:
Grete Stückgold • Emmi Leisner • Heinrich Schlusnus • Heinrich Rehkemper • Sarah Jane Charles-Cahier • Charles Kullman • Karin Branzel • Eugenia Zareska-

Лог создания рипа

Exact Audio Copy V1.0 beta 3 from 29. August 2011
EAC extraction logfile from 27. April 2013, 16:48
Various / Mahler - Lieder (Early Recordings 1915-1949)
Used drive : PHILIPS CDRW1610A Adapter: 0 ID: 0
Read mode : Secure
Utilize accurate stream : Yes
Defeat audio cache : Yes
Make use of C2 pointers : No
Read offset correction : 733
Overread into Lead-In and Lead-Out : No
Fill up missing offset samples with silence : Yes
Delete leading and trailing silent blocks : No
Null samples used in CRC calculations : Yes
Used interface : Native Win32 interface for Win NT & 2000
Used output format : User Defined Encoder
Selected bitrate : 128 kBit/s
Quality : High
Add ID3 tag : No
Command line compressor : C:\Program Files\FLAC\flac.exe
Additional command line options : -T "COMMENT=rip by el coronel, rutracker.org" -8 -V %source%
TOC of the extracted CD
Track | Start | Length | Start sector | End sector
---------------------------------------------------------
1 | 0:00.00 | 3:47.62 | 0 | 17086
2 | 3:47.62 | 1:55.53 | 17087 | 25764
3 | 5:43.40 | 6:17.12 | 25765 | 54051
4 | 12:00.52 | 5:28.12 | 54052 | 78663
5 | 17:28.64 | 4:56.40 | 78664 | 100903
6 | 22:25.29 | 4:52.59 | 100904 | 122862
7 | 27:18.13 | 3:41.44 | 122863 | 139481
8 | 30:59.57 | 6:53.62 | 139482 | 170518
9 | 37:53.44 | 4:50.33 | 170519 | 192301
10 | 42:44.02 | 5:04.02 | 192302 | 215103
11 | 47:48.04 | 3:41.60 | 215104 | 231738
12 | 51:29.64 | 4:59.64 | 231739 | 254227
13 | 56:29.53 | 2:56.50 | 254228 | 267477
14 | 59:26.28 | 2:29.49 | 267478 | 278701
15 | 61:56.02 | 4:10.66 | 278702 | 297517
16 | 66:06.68 | 4:20.37 | 297518 | 317054
17 | 70:27.30 | 3:03.68 | 317055 | 330847
18 | 73:31.23 | 5:09.71 | 330848 | 354093
Range status and errors
Selected range
Filename C:\Documents and Settings\User.X-TEAM\Мои документы\Mahler - Lieder (Early Recordings 1915-1949).wav
Peak level 100.0 %
Extraction speed 8.3 X
Range quality 99.9 %
Test CRC 289E4481
Copy CRC 289E4481
Copy OK
No errors occurred
AccurateRip summary
Track 1 not present in database
Track 2 not present in database
Track 3 not present in database
Track 4 not present in database
Track 5 not present in database
Track 6 not present in database
Track 7 not present in database
Track 8 not present in database
Track 9 not present in database
Track 10 not present in database
Track 11 not present in database
Track 12 not present in database
Track 13 not present in database
Track 14 not present in database
Track 15 not present in database
Track 16 not present in database
Track 17 not present in database
Track 18 not present in database
None of the tracks are present in the AccurateRip database
End of status report
==== Log checksum 37E424B8EC433E60C626208289E17B5B8996811CBCCD24DFD3C5955F36840778 ====

Содержание индексной карты (.CUE)

REM GENRE Vocal
REM DATE 2003
REM DISCID 08127112
REM COMMENT ExactAudioCopy v1.0b3
PERFORMER "Various"
TITLE "Mahler - Lieder (Early Recordings 1915-1949)"
FILE "Mahler - Lieder (Early Recordings 1915-1949).flac" WAVE
TRACK 01 AUDIO
TITLE "Lieder und Gesange aus der Jugendzeit: VII. Ich ging mit Lust"
PERFORMER "Grete Stuckgold mit Orchester (1921)"
INDEX 01 00:00:00
TRACK 02 AUDIO
TITLE "Des Knaben Wunderchorn: IV. Wer hat dies Liedlein erdacht"
PERFORMER "Grete Stuckgold mit Orchester (1921)"
INDEX 01 03:47:62
TRACK 03 AUDIO
TITLE "Symphony No.2: IV. Urlicht"
PERFORMER "Emmi Leisner; Kapelle des Staatsoper Berlin - Oscar Fried (1924)"
INDEX 01 05:43:40
TRACK 04 AUDIO
TITLE "Kindertotenlieder: I. Nun will die Sonn' so hell aufgeh'n"
PERFORMER "Heinrich Rehkemper; Orchester des Staatsoper Berlin - Jascha Horenstein (1928)"
INDEX 01 12:00:52
TRACK 05 AUDIO
TITLE "II. Nun seh' ich wohl"
PERFORMER "Heinrich Rehkemper; Orchester des Staatsoper Berlin - Jascha Horenstein (1928)"
INDEX 01 17:28:64
TRACK 06 AUDIO
TITLE "III. Wenn dein Mutterlein"
PERFORMER "Heinrich Rehkemper; Orchester des Staatsoper Berlin - Jascha Horenstein (1928)"
INDEX 01 22:25:29
TRACK 07 AUDIO
TITLE "IV. Oft denk' ich, sie sind nur ausgegangen"
PERFORMER "Heinrich Rehkemper; Orchester des Staatsoper Berlin - Jascha Horenstein (1928)"
INDEX 01 27:18:13
TRACK 08 AUDIO
TITLE "V. In diesem Wetter"
PERFORMER "Heinrich Rehkemper; Orchester des Staatsoper Berlin - Jascha Horenstein (1928)"
INDEX 01 30:59:57
TRACK 09 AUDIO
TITLE "Symphony No.2: IV. Urlicht"
PERFORMER "Sarah Jane Charles-Cahier; Orchester des Staatsoper Berlin - Selmar Meyrowitz..."
INDEX 01 37:53:44
TRACK 10 AUDIO
TITLE "Lieder nach Ruckert: IV. Ich bin der Welt abhanden gekommen"
PERFORMER "Sarah Jane Charles-Cahier; Orchester des Staatsoper Berlin - Selmar Meyrowitz..."
INDEX 01 42:44:02
TRACK 11 AUDIO
TITLE "Des Knaben Wunderhorn: VII. Rheinlegendchen"
PERFORMER "Heinrich Schlusnus; Orchester des Staatsoper Berlin - Hermann Weigert (1931)"
INDEX 01 47:48:04
TRACK 12 AUDIO
TITLE "XII. Der Tambourg' sell"
PERFORMER "Heinrich Schlusnus; Orchester des Staatsoper Berlin - Hermann Weigert (1931)"
INDEX 01 51:29:64
TRACK 13 AUDIO
TITLE "Lieder nach Ruckert: I. Ich atmet' einen Lindenduft"
PERFORMER "Charles Kullman with Orchestra conducted by Malcolm Sargent (1938)"
INDEX 01 56:29:53
TRACK 14 AUDIO
TITLE "Des Knaben Wunderchorn: V. Das irdische Leben"
PERFORMER "Karin Branzell with piano (1949)"
INDEX 01 59:26:28
TRACK 15 AUDIO
TITLE "Lieder eines fahrender Gesellen: I. Wenn mein Schatz hochzeit macht"
PERFORMER "Eugenia Zareska; London Philharmonic Orchestra - Eduard van Beinum (1946)"
INDEX 01 61:56:02
TRACK 16 AUDIO
TITLE "II. Ging heut' Morgen uber's Feld"
PERFORMER "Eugenia Zareska; London Philharmonic Orchestra - Eduard van Beinum (1946)"
INDEX 01 66:06:68
TRACK 17 AUDIO
TITLE "III. Ich hab' ein gluhend' Messer"
PERFORMER "Eugenia Zareska; London Philharmonic Orchestra - Eduard van Beinum (1946)"
INDEX 01 70:27:30
TRACK 18 AUDIO
TITLE "IV. Die zwei blauen Augen"
PERFORMER "Eugenia Zareska; London Philharmonic Orchestra - Eduard van Beinum (1946)"
INDEX 01 73:31:23
-



Показать сообщения:    

Текущее время: 07-Дек 19:26

Часовой пояс: UTC + 3


Вы не можете начинать темы
Вы не можете отвечать на сообщения
Вы не можете редактировать свои сообщения
Вы не можете удалять свои сообщения
Вы не можете голосовать в опросах
Вы не можете прикреплять файлы к сообщениям
Вы не можете скачивать файлы