Дешифровщик. История Алана Тьюринга / Codebreaker: The Alan Turing Story (Клэр Бивэн / Clare Beavan, Ник Стэйси / Nic Stacey) [2011, документально-игровой, биографический, драма, гей-тема, DVB] [телеверсия] DVO (Первый канал)


Статистика раздачи [Обновить пиров]
Размер:  1.2 GB   |    Зарегистрирован:  8 месяцев 20 дней   |    Скачан:  0 раз

Полного источника не было: Никогда

 
   
 
 
 

[Цитировать]

Дешифровщик. История Алана Тьюринга
Codebreaker: The Alan Turing Story- Дата/Год выпуска: 2011
Страна: Великобритания
Жанр: документально-игровой, биографический, драма, гей-тема
Продолжительность: 00:52:25
Перевод: Профессиональный (двухголосый закадровый)
Доп. инфо о переводе: ЗАО "Первый канал. Всемирная сеть"
Русские субтитры: нет
Режиссер: Клэр Бивэн / Clare Beavan, Ник Стэйси / Nic Stacey
Телеканал: Время: далекое и близкоеОписание: Эд Стоппард / Ed Stoppard (Alan Turing), Генри Гудман / Henry Goodman (Dr. Franz Greenbaum), Пол МакГанн / Paul McGann (Narrator, voice), Стив Возняк / Steve Wozniak (Himself - Co-Founder, Apple)
Фильм о британском математике и криптографе Алане Тьюринге. О том, как появился логотип Apple в виде яблока, давно ходит множество легенд. Самая трагичная из них гласит, что надкус символизирует знания, а сам логотип посвящен выдающемуся математику Алану Тьюрингу, который совершил самоубийство, откусив кусок отравленного цианидом яблока.
Так это или нет, не известно. Но безусловно и то, что с именем Тьюринга и без того связано много значительных моментов в истории информатики, да и просто в мировой истории. Он предложил тест для оценки искусственного интеллекта компьютера, расшифровал код фашистской Энигмы, что приблизило окончание Второй мировой войны. Тем не менее, больше, чем его жизнь, известна его смерть. (анонс канала "Время: далекое и близкое")
Не стоит забывать, что причиной самоубийства Тьюринга стало решение суда, признавшего его виновным в гомосексуализме и предписавшего принудительную гормональную терапию. Алан Тьюринг был признан "одной из самых известных жертв гомофобии в Великобритании". 24 декабря 2013 года Тьюринг был посмертно помилован королевой Великобритании Елизаветой II.
Доп. информация: DVB-S. На территории РФ возрастное ограничение 18+. На DVD была выпущена расширенная версия фильма продолжительностью 81 минута - см. DVDRip - перевод русскими субтитрами.
Награды: приз зрительских симпатий European Science TV & New Media Awards 2012; приз зрительских симпатий "Side by Side" LGBT International Film Festival in St. Petersburg (Russia) 2012; номинация на лучший документальный фильм GLAAD Media Awards 2013.

качество: DVB
формат: MKV
Видео: MPEG Video 2, 720x576@768x576 (4:3), 25 fps, ~3014 kbps avg, 0.291 bit/pixel
Аудио: MPEG Audio 2, 2 ch, 48 kHz, ~192.00 kbps avg

MediaInfo

Общее
Уникальный идентификатор : 191523413659344558467505026837496012999 (0x9016115786778A1EBC3A3FA20F2920C7)
Полное имя : E:\My Torrents 2\[apreder]Codebreaker(2011)DVB.mkv
Формат : Matroska
Версия формата : Version 2
Размер файла : 1,20 Гбайт
Продолжительность : 52 м.
Режим общего битрейта : Переменный
Общий поток : 3271 Кбит/сек
Дата кодирования : UTC 2015-02-15 14:40:22
Программа кодирования : mkvmerge v7.6.0 ('Garden of Dreams') 64bit built on Feb 8 2015 13:04:34
Библиотека кодирования : libebml v1.3.1 + libmatroska v1.4.2
Видео
Идентификатор : 1
Формат : MPEG Video
Версия формата : Version 2
Профиль формата : Main@Main
Параметр BVOP формата : Да
Параметр матрицы формата : Выборочная
Параметр GOP формата : M=3, N=12
Format_Settings_PictureStructure : Frame
Идентификатор кодека : V_MPEG2
Идентификатор кодека/Информация : MPEG 1 or 2 Video
Продолжительность : 52 м.
Вид битрейта : Переменный
Битрейт : 3014 Кбит/сек
Ширина : 720 пикселей
Высота : 576 пикселей
Соотношение сторон : 4:3
Режим частоты кадров : Постоянный
Частота кадров : 25,000 кадров/сек
Стандарт вещания : PAL
Цветовое пространство : YUV
Субдискретизация насыщенности : 4:2:0
Битовая глубина : 8 бит
Тип развёртки : Чересстрочная
Порядок развёртки : Верхнее поле первое
Метод сжатия : С потерями
Бит/(Пиксели*Кадры) : 0.291
Временной код первого кадра : 00:00:00:00
Оригинал временного кода : Group of pictures header
Размер потока : 1,10 Гбайт (92%)
Default : Да
Forced : Нет
Gop_OpenClosed_FirstFrame : Closed
Аудио
Идентификатор : 2
Формат : MPEG Audio
Версия формата : Version 1
Профиль формата : Layer 2
Идентификатор кодека : A_MPEG/L2
Идентификатор кодека/Подсказка : MP2
Продолжительность : 52 м.
Вид битрейта : Постоянный
Битрейт : 192 Кбит/сек
Каналы : 2 канала
Частота : 48,0 КГц
Метод сжатия : С потерями
Размер потока : 72,0 Мбайт (6%)
Язык : Russian
Default : Да
Forced : Нет

Скриншоты

Резервные скриншоты

-[2'114]
[teatrix.ru].t20376.torrent 
Торрент: Зарегистрирован [ 2016-03-19 20:38 ] · C133D726AE662CC5C20995EB5BAB9D6250122640

Скачать .torrent

Скачать

12 KB

Статус: проверено
Скачан: 0 раз
Размер: 1.2 GB
terms.php



Быстрый ответ

Имя:

      
Для отправки сообщений необходимо включить JavaScript
Показать сообщения:    

Текущее время: 09-Дек 08:49

Часовой пояс: UTC + 3


Вы можете начинать темы
Вы можете отвечать на сообщения
Вы не можете редактировать свои сообщения
Вы не можете удалять свои сообщения
Вы не можете голосовать в опросах
Вы не можете прикреплять файлы к сообщениям
Вы можете скачивать файлы